<?xml version="1.0" standalone="no"?>
<!DOCTYPE svg PUBLIC "-//W3C//DTD SVG 1.1//EN" "http://www.w3.org/Graphics/SVG/1.1/DTD/svg11.dtd" >
<svg>
<metadata>
Created by FontForge 20120731 at Thu Jan 24 09:52:27 2013
 By Stefan Warting
 The digitally encoded machine readable software for producing the
 Typefaces licensed to you is copyrighted (c) 1985, 1987, 1991, 1993,
 1997, 1998, 1999, 2002 Adobe Systems. All Rights Reserved. This software is the property of
 Adobe Systems Incorporated and its licensors, and may not be
 reproduced, used, displayed, modified, disclosed or transferred
 without the express written approval of Adobe.
 
 The digitally encoded machine readable outline data for producing the Typefaces 
 provided as part of your laser printer is copyrighted (c) 1981, 1999, 2002 Heidelberger Druckmaschinen AG. 
 All rights reserved. This data is the property of Heidelberger Druckmaschinen AG, 
 and may not be reproduced, used, displayed, modified, disclosed or transferred 
 without the express written approval of Heidelberger Druckmaschinen AG. 
</metadata>
<defs>
<font id="HelveticaLTStd-Cond" horiz-adv-x="500" >
  <font-face 
    font-family="Helvetica LT Std"
    font-weight="400"
    font-stretch="condensed"
    units-per-em="1000"
    panose-1="2 11 5 6 2 2 2 3 2 4"
    ascent="718"
    descent="-282"
    x-height="556"
    cap-height="750"
    bbox="-174 -250 1071 990"
    underline-thickness="50"
    underline-position="-50"
    stemh="67"
    stemv="79"
    unicode-range="U+0020-FB02"
  />
<missing-glyph 
d="M0 0v700h500v-700h-500zM250 395l170 255h-340zM280 350l170 -255v510zM80 50h340l-170 255zM50 605v-510l170 255z" />
    <glyph glyph-name="fi" unicode="fi" 
d="M93 0v489h-81v67h80v47c0 33 0 79 20 107c26 37 73 47 147 40v-67c-64 6 -87 0 -87 -68v-59h87v-67h-87v-489h-79zM425 750v-100h-79v100h79zM427 556v-556h-79v556h79z" />
    <glyph glyph-name="fl" unicode="fl" 
d="M93 0v489h-81v67h80v47c0 33 0 79 20 107c26 37 73 47 147 40v-67c-64 6 -87 0 -87 -68v-59h87v-67h-87v-489h-79zM425 0h-79v750h79v-750z" />
    <glyph glyph-name=".notdef" 
d="M0 0v700h500v-700h-500zM250 395l170 255h-340zM280 350l170 -255v510zM80 50h340l-170 255zM50 605v-510l170 255z" />
    <glyph glyph-name="space" unicode=" " horiz-adv-x="250" 
 />
    <glyph glyph-name="exclam" unicode="!" horiz-adv-x="333" 
d="M144 183l-23 337v230h91v-230l-23 -337h-45zM212 0h-91v100h91v-100z" />
    <glyph glyph-name="quotedbl" unicode="&#x22;" horiz-adv-x="250" 
d="M44 513v226h52v-226h-52zM155 513v226h52v-226h-52z" />
    <glyph glyph-name="numbersign" unicode="#" 
d="M33 0l79 254h-107l17 59h108l38 124h-109l17 59h109l79 254h55l-78 -254h88l77 254h56l-78 -254h111l-17 -59h-112l-38 -124h112l-15 -59h-115l-78 -254h-55l78 254h-87l-80 -254h-55zM186 313h87l38 124h-88z" />
    <glyph glyph-name="dollar" unicode="$" 
d="M268 326v-264c84 -4 111 46 111 122c0 86 -37 111 -111 142zM226 62v280c-94 43 -184 88 -184 207c0 114 70 197 184 201v65h44v-65c122 -5 175 -81 174 -200h-81c-1 42 -2 95 -44 116c-16 6 -32 10 -49 9v-255c130 -59 195 -86 195 -217c0 -130 -64 -216 -197 -218v-101
h-42v101c-154 6 -199 105 -190 247h80c-1 -86 -1 -170 110 -170zM226 436v239c-49 -3 -98 -29 -98 -114c0 -71 41 -97 98 -125z" />
    <glyph glyph-name="percent" unicode="%" horiz-adv-x="833" 
d="M756 186c0 -139 -58 -187 -144 -186c-64 1 -126 50 -126 189c0 93 32 173 139 173c103 0 131 -88 131 -176zM621 56c61 0 68 67 68 113c0 50 0 137 -69 137c-67 0 -67 -87 -67 -137c0 -46 7 -113 68 -113zM194 736c103 0 131 -91 131 -179c0 -139 -44 -191 -140 -183
c-83 7 -130 47 -130 186c0 93 32 176 139 176zM190 430c61 0 68 67 68 113c0 50 0 137 -69 137c-67 0 -67 -87 -67 -137c0 -46 7 -113 68 -113zM595 750l-332 -765h-54l335 765h51z" />
    <glyph glyph-name="ampersand" unicode="&#x26;" horiz-adv-x="667" 
d="M428 127l-163 243c-63 -46 -104 -89 -104 -171c0 -87 57 -142 143 -142c51 0 93 32 124 70zM292 469c45 34 83 71 83 132c0 43 -24 82 -71 82c-44 0 -70 -38 -70 -79c0 -49 31 -96 58 -135zM328 414l144 -210c16 45 26 93 29 140h74c-5 -71 -18 -144 -54 -207l99 -139
h-101l-47 69c-46 -57 -104 -85 -177 -85c-135 0 -220 84 -220 218c0 114 64 170 154 227c-40 52 -71 100 -71 168c0 83 55 155 142 155c90 0 157 -56 157 -149c0 -81 -66 -145 -129 -187z" />
    <glyph glyph-name="quoteright" unicode="&#x2019;" horiz-adv-x="222" 
d="M64 504v45c43 9 49 66 49 102h-49v99h94v-98c0 -65 -20 -126 -94 -148z" />
    <glyph glyph-name="parenleft" unicode="(" horiz-adv-x="333" 
d="M231 750h53c-45 -93 -124 -223 -124 -478c0 -184 35 -327 129 -487h-58c-90 147 -155 300 -155 475c0 197 53 324 155 490z" />
    <glyph glyph-name="parenright" unicode=")" horiz-adv-x="333" 
d="M102 -215h-53c45 93 124 223 124 478c0 184 -35 327 -129 487h58c90 -147 155 -300 155 -475c0 -197 -53 -324 -155 -490z" />
    <glyph glyph-name="asterisk" unicode="*" 
d="M113 669l113 -44v125h52v-122l111 41l16 -48l-114 -38l76 -96l-41 -32l-78 99l-72 -94l-43 27l75 93l-112 45z" />
    <glyph glyph-name="plus" unicode="+" 
d="M215 289v216h70v-216h172v-70h-172v-219h-70v219h-171v70h171z" />
    <glyph glyph-name="comma" unicode="," horiz-adv-x="250" 
d="M129 0h-49v100h91c0 -16 1 -80 -3 -118c-1 -41 -13 -83 -49 -108c-11 -9 -25 -15 -39 -20v45c7 1 17 6 23 13c22 24 26 57 26 88z" />
    <glyph glyph-name="hyphen" unicode="-" horiz-adv-x="333" 
d="M288 275h-243v83h243v-83z" />
    <glyph glyph-name="period" unicode="." horiz-adv-x="250" 
d="M171 0h-91v100h91v-100z" />
    <glyph glyph-name="slash" unicode="/" horiz-adv-x="278" 
d="M48 -27h-61l243 777h61z" />
    <glyph glyph-name="zero" unicode="0" 
d="M132 382c0 -144 -20 -322 118 -322c124 0 119 178 119 322c0 106 11 284 -119 293c-132 8 -118 -224 -118 -293zM250 -15c-200 0 -204 251 -204 384c0 140 9 381 204 381c210 0 205 -238 205 -381c0 -170 -9 -384 -205 -384z" />
    <glyph glyph-name="one" unicode="1" 
d="M234 0v546h-160v65c107 2 166 22 178 139h65v-750h-83z" />
    <glyph glyph-name="two" unicode="2" 
d="M319 307l-135 -123c-36 -32 -52 -62 -54 -109h317v-75h-403c1 54 8 109 30 162c11 26 37 54 59 75l143 138c58 56 78 86 78 168c0 76 -26 132 -111 132c-103 0 -112 -101 -110 -180h-83v46c0 55 14 107 48 150c23 24 65 59 149 59c128 0 193 -85 193 -209
c0 -110 -44 -164 -121 -234z" />
    <glyph glyph-name="three" unicode="3" 
d="M188 349v75c66 4 155 -10 155 128c0 73 -22 123 -105 123c-94 0 -107 -70 -107 -147h-79c-4 126 52 222 188 222c112 0 187 -73 187 -186c0 -81 -25 -140 -105 -168v-2c87 -19 125 -88 125 -173c0 -140 -62 -236 -211 -236c-150 0 -201 99 -198 235h82
c-7 -80 16 -160 123 -160c82 0 121 57 121 134c0 131 -50 156 -176 155z" />
    <glyph glyph-name="four" unicode="4" 
d="M299 620l-205 -358h207v358h-2zM28 264l280 486h76v-488h67v-75h-67v-187h-83v187h-273v77z" />
    <glyph glyph-name="five" unicode="5" 
d="M43 196h86c-4 -80 26 -136 111 -136c88 0 120 88 120 181c0 86 -19 176 -125 176c-50 0 -85 -22 -105 -68h-74l44 386h319v-75h-252l-33 -220l2 -2c33 36 67 54 119 54c138 -1 191 -116 191 -238c0 -133 -49 -269 -204 -269c-133 0 -205 79 -199 211z" />
    <glyph glyph-name="six" unicode="6" 
d="M372 242c0 82 -25 159 -121 159c-98 0 -116 -82 -116 -151c-5 -142 47 -190 122 -190c98 0 115 106 115 182zM259 -15c-201 0 -216 194 -216 348c0 156 6 417 222 417c111 0 172 -71 175 -179h-85c0 68 -29 104 -100 104c-127 0 -126 -211 -130 -291h2
c29 64 84 92 138 92c134 0 193 -108 193 -229c0 -160 -85 -262 -199 -262z" />
    <glyph glyph-name="seven" unicode="7" 
d="M44 660v75h412v-69c-143 -194 -227 -427 -247 -666h-93c29 239 124 467 271 660h-343z" />
    <glyph glyph-name="eight" unicode="8" 
d="M132 218c0 -83 26 -158 124 -158c69 0 112 57 112 159c0 77 -31 145 -118 145s-118 -70 -118 -146zM155 562c-1 -74 29 -123 99 -123c73 0 93 55 93 120c0 64 -20 116 -94 116s-98 -46 -98 -113zM188 404v2c-89 15 -119 80 -119 165s49 179 190 179
c105 0 174 -62 174 -184c0 -76 -32 -145 -113 -160v-2c94 -16 134 -96 134 -178c0 -129 -55 -241 -200 -241c-137 0 -208 85 -208 230c0 121 80 178 142 189z" />
    <glyph glyph-name="nine" unicode="9" 
d="M368 490c0 80 -23 185 -123 185c-94 0 -116 -96 -116 -172c0 -78 20 -169 117 -169c94 0 122 78 122 156zM242 750c201 0 216 -194 216 -348c0 -156 -6 -417 -222 -417c-111 0 -172 71 -175 179h85c0 -68 29 -104 100 -104c127 0 126 211 130 291h-2
c-29 -64 -84 -92 -138 -92c-134 0 -193 108 -193 229c0 160 85 262 199 262z" />
    <glyph glyph-name="colon" unicode=":" horiz-adv-x="250" 
d="M171 0h-91v100h91v-100zM171 447h-91v100h91v-100z" />
    <glyph glyph-name="semicolon" unicode=";" horiz-adv-x="250" 
d="M80 0v100h91c0 -16 1 -80 -3 -118c-1 -41 -13 -83 -49 -108c-11 -9 -25 -15 -39 -20v45c7 1 17 6 23 13c22 24 26 57 26 88h-49zM171 447h-91v100h91v-100z" />
    <glyph glyph-name="less" unicode="&#x3c;" 
d="M120 254l339 -191v-73l-417 232v64l417 232v-73z" />
    <glyph glyph-name="equal" unicode="=" 
d="M457 384v-70h-413v70h413zM457 194v-70h-413v70h413z" />
    <glyph glyph-name="greater" unicode="&#x3e;" 
d="M42 63l339 191l-339 191v73l417 -232v-64l-417 -232v73z" />
    <glyph glyph-name="question" unicode="?" 
d="M287 172h-89c0 104 9 128 79 206c14 15 26 30 39 45c35 44 55 76 55 133c0 59 -27 124 -101 124c-105 0 -124 -85 -123 -166h-87c-5 121 51 236 198 236c122 0 204 -72 204 -188c0 -133 -79 -171 -154 -271c-6 -11 -13 -22 -16 -34c-7 -27 -5 -56 -5 -85zM289 0h-91v100
h91v-100z" />
    <glyph glyph-name="at" unicode="@" horiz-adv-x="800" 
d="M431 536c-106 0 -174 -149 -174 -241c0 -48 27 -96 78 -96c53 0 94 52 115 93c24 47 52 118 52 171c0 39 -29 73 -71 73zM544 529l14 47h69l-103 -305c-5 -14 -13 -38 -13 -52c0 -17 13 -29 30 -29c45 0 97 46 121 81c33 47 51 107 51 164c0 164 -145 266 -297 266
c-186 0 -329 -155 -329 -337s151 -330 331 -330c104 0 207 53 267 140h60c-64 -117 -195 -189 -327 -189c-216 0 -382 173 -382 386c0 210 173 379 383 379c86 0 171 -30 237 -87c71 -61 108 -138 108 -232c0 -67 -22 -129 -61 -184c-41 -58 -101 -110 -176 -110
c-35 0 -75 16 -87 53c-31 -32 -77 -51 -120 -51c-86 0 -140 69 -140 151c0 135 101 306 250 306c47 0 93 -23 114 -67z" />
    <glyph glyph-name="A" unicode="A" horiz-adv-x="556" 
d="M11 0l214 750h110l211 -750h-92l-59 216h-237l-55 -216h-92zM376 291l-97 399h-2l-99 -399h198z" />
    <glyph glyph-name="B" unicode="B" horiz-adv-x="556" 
d="M163 75h131c90 -1 123 43 123 141c1 148 -95 138 -180 138h-74v-279zM163 675v-246h74c101 -5 160 13 159 128c0 93 -34 120 -160 118h-73zM278 0h-198v750h214c136 4 187 -74 191 -186c3 -83 -24 -135 -112 -165v-2c99 -12 129 -84 130 -176c1 -149 -81 -227 -225 -221z
" />
    <glyph glyph-name="C" unicode="C" horiz-adv-x="556" 
d="M503 525h-83c-2 89 -31 165 -135 165c-144 0 -146 -205 -146 -304c-4 -102 -6 -329 146 -329c99 0 120 81 130 163c2 17 3 34 5 51h83c-2 -15 -2 -31 -4 -46c-5 -61 -8 -107 -44 -159c-39 -54 -91 -84 -163 -84c-231 0 -239 223 -239 402c0 169 25 381 238 381
c142 0 216 -106 212 -240z" />
    <glyph glyph-name="D" unicode="D" horiz-adv-x="611" 
d="M303 0h-221v750h206c234 0 266 -190 260 -375c-6 -183 -42 -375 -245 -375zM165 675v-600h133c122 0 172 91 164 315c-6 171 -30 285 -164 285h-133z" />
    <glyph glyph-name="E" unicode="E" 
d="M451 0h-377v750h375v-75h-292v-248h274v-75h-274v-277h294v-75z" />
    <glyph glyph-name="F" unicode="F" horiz-adv-x="444" 
d="M157 0h-83v750h352v-75h-269v-246h250v-75h-250v-354z" />
    <glyph glyph-name="G" unicode="G" horiz-adv-x="611" 
d="M532 385v-391h-64v117h-2c-22 -85 -89 -129 -172 -129c-223 0 -240 222 -240 398c0 175 31 385 248 385c143 0 225 -93 223 -233h-84c-1 92 -40 156 -135 158c-164 3 -166 -185 -166 -313c0 -114 -6 -313 142 -320c154 -7 168 134 167 253h-167v75h250z" />
    <glyph glyph-name="H" unicode="H" horiz-adv-x="611" 
d="M162 0h-83v750h83v-313h287v313h83v-750h-83v362h-287v-362z" />
    <glyph glyph-name="I" unicode="I" horiz-adv-x="278" 
d="M181 0h-83v750h83v-750z" />
    <glyph glyph-name="J" unicode="J" horiz-adv-x="444" 
d="M22 235h83v-44c0 -67 3 -131 87 -131s93 64 93 131v559h83v-565c0 -158 -72 -200 -177 -200c-58 0 -114 17 -143 71c-32 60 -27 143 -26 179z" />
    <glyph glyph-name="K" unicode="K" horiz-adv-x="556" 
d="M163 0h-84v750h83v-385h2l271 385h104l-239 -314l246 -436h-102l-203 362l-78 -102v-260z" />
    <glyph glyph-name="L" unicode="L" 
d="M472 0h-389v750h83v-675h306v-75z" />
    <glyph glyph-name="M" unicode="M" horiz-adv-x="778" 
d="M407 166l149 584h146v-750h-83v618c0 32 2 63 0 95h-2c-9 -44 -16 -72 -23 -101l-157 -612h-99l-157 621c-7 26 -13 51 -22 92h-2c0 -32 2 -65 2 -97v-616h-83v750h147l147 -585c8 -32 12 -63 16 -111h2c5 38 10 75 19 112z" />
    <glyph glyph-name="N" unicode="N" horiz-adv-x="611" 
d="M451 138v612h83v-750h-136l-210 600c-12 34 -21 68 -28 113h-2c1 -38 2 -77 2 -115v-598h-83v750h135l213 -614c9 -23 16 -47 26 -82h2c-1 27 -2 56 -2 84z" />
    <glyph glyph-name="O" unicode="O" horiz-adv-x="611" 
d="M59 391c0 172 26 374 249 374c219 0 246 -202 245 -374c-1 -208 -28 -409 -247 -409s-245 201 -247 409zM467 389c1 167 -31 301 -163 301c-128 0 -160 -134 -159 -301c1 -217 23 -332 161 -332s160 115 161 332z" />
    <glyph glyph-name="P" unicode="P" horiz-adv-x="556" 
d="M169 675v-282h81c114 1 184 17 183 146c0 121 -77 138 -178 136h-86zM169 0h-83v750h197c58 0 131 -7 175 -49c45 -42 61 -100 61 -160c0 -83 -25 -164 -106 -201c-52 -22 -137 -22 -194 -22h-50v-318z" />
    <glyph glyph-name="Q" unicode="Q" horiz-adv-x="611" 
d="M496 90l86 -72l-42 -52l-84 70c-32 -32 -95 -54 -150 -54c-219 0 -245 201 -247 409c0 172 26 374 245 374c223 0 250 -202 250 -374c0 -52 -7 -235 -58 -301zM394 85l-74 59l44 55l70 -56c17 29 35 135 34 215c-2 217 -24 332 -162 332s-160 -115 -161 -332
c-1 -167 31 -305 159 -301c33 1 60 6 90 28z" />
    <glyph glyph-name="R" unicode="R" horiz-adv-x="611" 
d="M169 675v-270h131c39 1 147 7 145 138c-2 129 -103 132 -159 132h-117zM169 330v-330h-83v750h193c157 0 257 -41 252 -214c-3 -88 -57 -151 -144 -163v-2c97 -9 121 -40 133 -140c3 -56 8 -111 16 -167c3 -14 9 -47 29 -47v-17h-97c-18 48 -26 141 -26 191
c0 75 -30 139 -128 139h-145z" />
    <glyph glyph-name="S" unicode="S" horiz-adv-x="556" 
d="M483 553h-83c6 78 -36 137 -119 137c-121 0 -134 -76 -134 -134c0 -52 23 -84 71 -102c40 -15 79 -30 119 -45c142 -53 168 -103 168 -202c0 -142 -89 -225 -233 -225c-74 0 -162 21 -205 119c-16 37 -15 97 -16 137h83c-4 -111 17 -181 142 -181c84 0 143 43 143 131
c0 114 -46 115 -122 144c-41 16 -107 37 -147 58c-71 36 -89 96 -89 170c0 124 87 205 209 205c137 0 221 -71 213 -212z" />
    <glyph glyph-name="T" unicode="T" 
d="M15 675v75h471v-75h-194v-675h-83v675h-194z" />
    <glyph glyph-name="U" unicode="U" horiz-adv-x="611" 
d="M81 181v569h83v-539c-1 -59 9 -154 142 -154s143 95 142 154v539h83v-569c0 -134 -89 -199 -225 -199s-225 65 -225 199z" />
    <glyph glyph-name="V" unicode="V" horiz-adv-x="556" 
d="M278 60l175 690h92l-216 -750h-103l-215 750h92l173 -690h2z" />
    <glyph glyph-name="W" unicode="W" horiz-adv-x="833" 
d="M389 509l-109 -509h-103l-160 750h92l98 -517c9 -51 16 -103 22 -173h2c7 58 13 113 24 167l110 523h103l99 -517c9 -50 15 -100 22 -173h2c7 58 13 113 24 167l109 523h92l-176 -750h-103l-100 509c-10 49 -16 99 -22 181h-2c-7 -72 -13 -127 -24 -181z" />
    <glyph glyph-name="X" unicode="X" horiz-adv-x="556" 
d="M17 0l213 385l-207 365h98l157 -293l157 293h98l-206 -365l212 -385h-102l-159 314l-162 -314h-99z" />
    <glyph glyph-name="Y" unicode="Y" horiz-adv-x="556" 
d="M103 750l175 -376l176 376h92l-227 -459v-291h-83v291l-225 459h92z" />
    <glyph glyph-name="Z" unicode="Z" 
d="M473 0h-445v72l354 603h-345v75h431v-72l-354 -603h359v-75z" />
    <glyph glyph-name="bracketleft" unicode="[" horiz-adv-x="333" 
d="M275 -209h-175v959h175v-60h-97v-837h97v-62z" />
    <glyph glyph-name="backslash" unicode="\" horiz-adv-x="250" 
d="M277 -27h-61l-243 777h61z" />
    <glyph glyph-name="bracketright" unicode="]" horiz-adv-x="333" 
d="M233 -209h-175v62h97v837h-97v60h175v-959z" />
    <glyph glyph-name="asciicircum" unicode="^" 
d="M225 750h49l157 -417h-54l-128 338l-126 -338h-53z" />
    <glyph glyph-name="underscore" unicode="_" 
d="M500 -125h-500v50h500v-50z" />
    <glyph glyph-name="quoteleft" unicode="&#x2018;" horiz-adv-x="222" 
d="M158 767v-45c-43 -9 -49 -66 -49 -102h49v-99h-94l1 99c1 63 18 125 93 147z" />
    <glyph glyph-name="a" unicode="a" horiz-adv-x="444" 
d="M287 165v135c-39 -23 -83 -40 -125 -60c-37 -17 -49 -58 -49 -96c0 -56 14 -92 78 -92c30 0 96 23 96 113zM417 58v-58c-6 -1 -12 -2 -18 -4c-67 -3 -92 3 -100 79h-2c-19 -49 -70 -90 -123 -90c-111 0 -143 62 -143 163c0 21 3 101 80 135c45 20 157 62 167 70
c17 13 15 35 15 64c0 63 -24 87 -88 87c-72 0 -82 -33 -81 -98h-71c-4 115 53 165 165 165c165 0 151 -138 151 -151v-319c0 -14 -2 -34 14 -42c11 -3 23 -2 34 -1z" />
    <glyph glyph-name="b" unicode="b" 
d="M149 264c0 -81 -1 -212 111 -212c82 0 105 86 105 236c0 73 -5 216 -106 216c-117 0 -110 -159 -110 -240zM147 66v-66h-72v750h79v-251h2c31 50 67 72 116 72c141 0 175 -143 175 -257c0 -158 -21 -329 -171 -329c-48 0 -94 16 -127 81h-2z" />
    <glyph glyph-name="c" unicode="c" horiz-adv-x="444" 
d="M235 504c-115 0 -109 -171 -109 -250c0 -73 5 -202 106 -202c86 0 94 74 98 142h75c-3 -107 -43 -209 -167 -209c-170 0 -194 142 -194 286c0 136 22 300 192 300c112 0 166 -87 165 -190h-74c-1 61 -17 123 -92 123z" />
    <glyph glyph-name="d" unicode="d" 
d="M345 218v69c0 76 -2 217 -108 217c-66 0 -109 -52 -109 -223c0 -120 4 -229 112 -229c82 0 105 103 105 166zM345 499v251h79v-750h-76v73h-2c-34 -66 -68 -88 -135 -88c-175 0 -161 245 -163 294c-6 163 48 292 167 292c57 0 91 -24 128 -72h2z" />
    <glyph glyph-name="e" unicode="e" horiz-adv-x="444" 
d="M125 336h188c-3 65 1 168 -91 168s-94 -102 -97 -168zM317 185h74c5 -109 -51 -200 -168 -200c-105 0 -180 70 -180 294c0 117 31 292 178 292c180 0 170 -170 174 -300h-270c2 -75 -11 -219 100 -219c76 0 97 70 92 133z" />
    <glyph glyph-name="f" unicode="f" horiz-adv-x="278" 
d="M93 0v489h-81v67h80v47c0 33 0 79 20 107c26 37 73 47 147 40v-67c-64 6 -87 0 -87 -68v-59h87v-67h-87v-489h-79z" />
    <glyph glyph-name="g" unicode="g" 
d="M236 504c-105 0 -109 -151 -109 -226c0 -136 23 -226 101 -226c120 0 119 149 119 238c0 110 -23 214 -111 214zM347 493v63h79v-489c0 -68 -5 -120 -42 -179c-35 -55 -92 -77 -153 -77c-89 0 -155 41 -166 136h77c7 -50 39 -69 87 -69c128 0 115 126 116 187h-2
c-33 -57 -69 -80 -120 -80c-105 0 -178 73 -178 297c0 117 29 289 176 289c51 0 97 -25 124 -78h2z" />
    <glyph glyph-name="h" unicode="h" 
d="M152 372v-372h-79v750h79v-255h2c36 48 77 76 137 76c83 0 137 -44 137 -142v-429h-79v407c0 58 -19 97 -83 97c-29 0 -57 -11 -78 -31c-32 -29 -36 -61 -36 -101z" />
    <glyph glyph-name="i" unicode="i" horiz-adv-x="222" 
d="M151 0h-79v556h79v-556zM151 650h-79v100h79v-100z" />
    <glyph glyph-name="j" unicode="j" horiz-adv-x="222" 
d="M13 -190v73c12 -1 45 -1 53 15c12 22 9 49 9 73v585h79v-578c0 -130 -32 -168 -141 -168zM154 650h-79v100h79v-100z" />
    <glyph glyph-name="k" unicode="k" horiz-adv-x="444" 
d="M148 0h-79v750h79v-453h2l190 259h94l-172 -216l177 -340h-92l-139 277l-60 -79v-198z" />
    <glyph glyph-name="l" unicode="l" horiz-adv-x="222" 
d="M151 0h-79v750h79v-750z" />
    <glyph glyph-name="m" unicode="m" horiz-adv-x="778" 
d="M155 372v-372h-79v556h76v-71h2c26 47 74 86 132 86c59 0 107 -35 132 -88c39 57 79 88 149 88c38 0 73 -13 102 -39c36 -33 34 -95 34 -130v-402h-79v407c0 62 -17 97 -85 97c-27 -1 -54 -12 -74 -31c-32 -29 -36 -61 -36 -101v-372h-79v407c0 58 -19 97 -83 97
c-29 0 -57 -11 -78 -31c-32 -29 -34 -61 -34 -101z" />
    <glyph glyph-name="n" unicode="n" 
d="M150 556v-61h2c38 48 79 76 139 76c83 0 137 -44 137 -142v-429h-79v407c0 58 -19 97 -83 97c-29 0 -57 -11 -78 -31c-32 -29 -36 -61 -36 -101v-372h-79v556h77z" />
    <glyph glyph-name="o" unicode="o" 
d="M449 297c0 -241 -77 -312 -199 -312c-120 0 -199 72 -199 312c0 168 62 274 199 274s199 -106 199 -274zM367 272c0 168 -34 232 -117 232c-81 0 -117 -64 -117 -232c0 -131 25 -220 117 -220c94 0 117 89 117 220z" />
    <glyph glyph-name="p" unicode="p" 
d="M365 288c0 73 -8 216 -109 216c-103 0 -105 -146 -105 -225c0 -77 -3 -227 106 -227c82 0 108 86 108 236zM151 58v-246h-79v744h76v-62h2c25 52 70 74 115 77c141 0 182 -142 182 -256c0 -158 -28 -330 -178 -330c-56 0 -88 28 -116 73h-2z" />
    <glyph glyph-name="q" unicode="q" 
d="M137 254c3 -108 20 -202 104 -202c108 0 106 151 106 228c0 75 3 223 -103 224c-104 0 -110 -142 -107 -250zM350 499v57h76v-740h-79v245h-2c-35 -51 -68 -76 -118 -76c-117 0 -161 88 -172 285c-7 126 31 301 165 301c50 0 96 -20 128 -72h2z" />
    <glyph glyph-name="r" unicode="r" horiz-adv-x="333" 
d="M157 556v-91h2c33 73 80 104 163 97v-78c-102 18 -162 -46 -162 -147v-337h-79v556h76z" />
    <glyph glyph-name="s" unicode="s" horiz-adv-x="444" 
d="M380 407h-77c3 66 -21 97 -88 97c-56 0 -88 -26 -88 -84c0 -72 59 -81 113 -104c80 -36 160 -56 160 -160c0 -106 -74 -172 -188 -171c-49 -1 -109 16 -138 58c-33 44 -31 81 -31 119h75c-3 -68 20 -110 94 -110c64 0 106 26 106 94c0 79 -80 86 -137 110
c-86 32 -136 61 -136 158c0 96 67 157 163 157c110 0 174 -50 172 -164z" />
    <glyph glyph-name="t" unicode="t" horiz-adv-x="278" 
d="M164 707v-151h93v-67h-92v-379c0 -19 -7 -43 37 -43h53v-67h-87c-47 -1 -82 7 -82 91v398h-77v67h77v151h78z" />
    <glyph glyph-name="u" unicode="u" 
d="M345 0v73h-2c-27 -57 -78 -88 -132 -88c-83 0 -134 44 -134 142v429h79v-432c0 -47 15 -72 71 -72c38 0 73 17 95 49c18 28 23 66 23 98v357h79v-556h-79z" />
    <glyph glyph-name="v" unicode="v" horiz-adv-x="444" 
d="M178 0l-165 556h82l126 -489h2l126 489h82l-167 -556h-86z" />
    <glyph glyph-name="w" unicode="w" horiz-adv-x="667" 
d="M374 556l94 -489h2l97 489h82l-139 -556h-82l-94 489h-2l-88 -489h-82l-143 556h82l101 -489h2l88 489h82z" />
    <glyph glyph-name="x" unicode="x" horiz-adv-x="444" 
d="M179 286l-160 270h82l124 -200l123 200h82l-160 -270l166 -286h-82l-130 222l-133 -222h-82z" />
    <glyph glyph-name="y" unicode="y" horiz-adv-x="444" 
d="M182 -13l-177 569h82l125 -482h2l129 482h82l-165 -531c-10 -33 -35 -114 -51 -142c-29 -52 -69 -73 -127 -73c-19 0 -38 3 -57 9v70c18 -8 40 -12 59 -12c74 0 76 55 98 110z" />
    <glyph glyph-name="z" unicode="z" horiz-adv-x="389" 
d="M366 0h-342v62l258 429h-247v65h329v-65l-258 -426h260v-65z" />
    <glyph glyph-name="braceleft" unicode="{" horiz-adv-x="274" 
d="M177 190v-173c0 -55 19 -89 89 -110v-2c-134 -4 -169 38 -169 147v165c0 34 2 62 -32 86c-16 12 -37 20 -58 25v2c32 3 51 14 67 29c24 25 23 45 23 75v186c0 38 4 79 42 104c39 26 78 26 127 26v-2c-72 -20 -89 -53 -89 -110v-187c0 -64 -16 -105 -100 -121v-2
c87 -19 100 -67 100 -138z" />
    <glyph glyph-name="bar" unicode="|" horiz-adv-x="250" 
d="M93 750h64v-1000h-64v1000z" />
    <glyph glyph-name="braceright" unicode="}" horiz-adv-x="274" 
d="M97 465v173c0 55 -19 89 -89 110v2c134 4 169 -38 169 -147v-165c0 -34 -2 -62 32 -86c16 -12 37 -20 58 -25v-2c-32 -3 -51 -14 -67 -29c-24 -25 -23 -45 -23 -75v-186c0 -38 -4 -79 -42 -104c-39 -26 -78 -26 -127 -26v2c72 20 89 53 89 110v187c0 64 16 105 100 121v2
c-87 19 -100 67 -100 138z" />
    <glyph glyph-name="asciitilde" unicode="~" 
d="M161 332c29 0 64 -17 96 -35c33 -17 64 -35 85 -35c37 0 65 47 81 83l34 -47c-24 -54 -61 -111 -116 -111c-30 0 -83 30 -111 44c-21 11 -45 25 -69 25c-43 0 -65 -50 -83 -90l-34 48c25 56 59 118 117 118z" />
    <glyph glyph-name="exclamdown" unicode="&#xa1;" horiz-adv-x="333" 
d="M144 388h45l23 -337v-230h-91v230zM121 571h91v-100h-91v100z" />
    <glyph glyph-name="cent" unicode="&#xa2;" 
d="M200 -9l-29 -128h-48l32 143c-19 10 -35 23 -49 41c-40 65 -48 144 -48 218c0 97 14 252 129 283c21 6 41 8 63 8c9 0 18 -1 27 -3l26 114h50l-29 -127c42 -19 73 -55 83 -105c5 -22 8 -42 9 -63h-78c-2 41 -7 77 -30 97l-93 -413c9 -4 20 -4 32 -4c85 0 92 73 97 138h74
c1 -17 -3 -33 -5 -49c-7 -44 -18 -82 -51 -115c-25 -25 -74 -41 -110 -41c-18 0 -36 2 -52 6zM173 87l90 402c-6 2 -13 2 -20 2c-61 0 -80 -47 -90 -97c-11 -51 -13 -103 -13 -155c0 -47 4 -112 33 -152z" />
    <glyph glyph-name="sterling" unicode="&#xa3;" 
d="M125 338h-95v44h75c-30 55 -53 105 -53 168c0 41 11 85 35 119c41 57 98 81 179 81c114 0 190 -65 200 -179c1 -16 3 -33 1 -49h-83c0 6 1 36 -2 55c-11 66 -56 98 -122 98c-84 0 -122 -57 -122 -135c0 -55 26 -111 52 -158h164v-44h-145c2 -6 6 -11 7 -17
c7 -16 11 -39 11 -57c0 -82 -54 -152 -114 -200l2 -2c22 14 46 23 71 27s52 4 77 -1c25 -8 52 -13 77 -20c45 -11 81 3 117 29l28 -67c-46 -34 -69 -40 -125 -40c-29 0 -84 22 -117 30c-19 4 -38 6 -57 6c-47 0 -77 -17 -115 -41l-41 61c66 54 117 110 117 200
c0 32 -9 63 -22 92z" />
    <glyph glyph-name="fraction" unicode="&#x2044;" horiz-adv-x="167" 
d="M-174 0l452 750h63l-452 -750h-63z" />
    <glyph glyph-name="yen" unicode="&#xa5;" 
d="M205 262v29l-222 459h100l167 -376l174 376h94l-231 -459v-29h138v-44h-138v-76h138v-44h-138v-98h-82v98h-138v44h138v76h-138v44h138z" />
    <glyph glyph-name="florin" unicode="&#x192;" 
d="M10 -179l10 68c17 -14 67 -15 96 2c25 15 40 95 50 154l60 363h-110v67h122c18 104 38 275 180 275c24 0 48 -3 70 -11l-17 -77c-14 15 -33 21 -53 21c-63 0 -73 -71 -84 -119c-7 -31 -12 -61 -17 -89h121v-67h-130l-52 -329c-13 -85 -44 -217 -95 -247
c-41 -24 -99 -33 -151 -11z" />
    <glyph glyph-name="section" unicode="&#xa7;" 
d="M63 -21h81c1 -71 31 -120 107 -120c56 0 100 29 100 89c0 55 -29 81 -176 176c-110 70 -140 110 -140 178c0 76 48 125 113 156c-45 29 -70 77 -70 130c0 101 76 162 177 162c109 0 170 -69 169 -176h-82c0 65 -28 107 -97 107c-50 0 -88 -33 -88 -84
c0 -43 -6 -48 131 -140c87 -59 178 -99 178 -201c0 -77 -48 -124 -107 -166c45 -34 72 -71 72 -129c0 -110 -73 -169 -192 -169c-112 0 -180 77 -176 187zM188 215l-1 -1c25 -15 110 -74 125 -85c39 30 74 59 74 113c0 36 -16 60 -105 123c-31 21 -59 41 -86 58
c-37 -26 -80 -54 -80 -105c0 -33 -1 -48 73 -103z" />
    <glyph glyph-name="currency" unicode="&#xa4;" 
d="M28 110l39 42c-29 47 -43 91 -43 148c0 59 12 103 43 151l-39 43l47 53l39 -43c41 34 88 49 139 49c49 0 91 -18 131 -49l40 43l47 -53l-38 -43c29 -49 42 -95 42 -156c0 -56 -15 -97 -42 -143l38 -42l-47 -53l-40 43c-40 -33 -88 -50 -139 -50c-50 0 -91 19 -131 50
l-39 -43zM253 481c-94 2 -157 -77 -157 -181c0 -97 65 -178 151 -178c90 0 156 79 156 181c0 95 -63 180 -150 178z" />
    <glyph glyph-name="quotesingle" unicode="'" horiz-adv-x="250" 
d="M99 513v226h52v-226h-52z" />
    <glyph glyph-name="quotedblleft" unicode="&#x201c;" horiz-adv-x="389" 
d="M156 767v-45c-43 -9 -49 -66 -49 -102h49v-99h-94l1 99c1 60 17 125 93 147zM327 767v-45c-43 -9 -49 -66 -49 -102h49v-99h-94v99c0 62 19 125 94 147z" />
    <glyph glyph-name="guillemotleft" unicode="&#xab;" 
d="M85 342l151 153v-83l-100 -102l100 -102v-83l-151 156v61zM264 342l151 153v-83l-100 -102l100 -102v-83l-151 156v61z" />
    <glyph glyph-name="guilsinglleft" unicode="&#x2039;" horiz-adv-x="278" 
d="M64 342l151 153v-83l-100 -102l100 -102v-83l-151 156v61z" />
    <glyph glyph-name="guilsinglright" unicode="&#x203a;" horiz-adv-x="278" 
d="M214 278l-151 -153v83l100 102l-100 102v83l151 -156v-61z" />
    <glyph glyph-name="endash" unicode="&#x2013;" 
d="M0 275v70h500v-70h-500z" />
    <glyph glyph-name="dagger" unicode="&#x2020;" 
d="M210 -176v633h-170v70h170v223h80v-223h171v-70h-171v-633h-80z" />
    <glyph glyph-name="daggerdbl" unicode="&#x2021;" 
d="M211 51h-172v70h171v328h-169v70h170v231h80v-231h171v-70h-171v-328h171v-70h-171v-227h-80v227z" />
    <glyph glyph-name="periodcentered" unicode="&#xb7;" horiz-adv-x="250" 
d="M171 204h-91v100h91v-100z" />
    <glyph glyph-name="paragraph" unicode="&#xb6;" horiz-adv-x="440" 
d="M157 -116v482c-83 -1 -157 87 -157 190c0 55 19 110 52 146c40 44 80 47 131 48h208v-866h-79v799h-76v-799h-79z" />
    <glyph glyph-name="bullet" unicode="&#x2022;" horiz-adv-x="333" 
d="M318 375c0 -83 -68 -153 -152 -153c-83 0 -151 70 -151 153c0 84 68 154 151 154c84 0 152 -70 152 -154z" />
    <glyph glyph-name="quotesinglbase" unicode="&#x201a;" horiz-adv-x="222" 
d="M64 -146v45c43 9 49 66 49 102h-49v99h94v-100c0 -61 -19 -124 -94 -146z" />
    <glyph glyph-name="quotedblbase" unicode="&#x201e;" horiz-adv-x="389" 
d="M233 -146v45c43 9 49 66 49 101h-49v100h94l-1 -100c-1 -57 -15 -123 -93 -146zM62 -146v45c43 9 49 66 49 101h-49v100h94v-100c0 -55 -15 -123 -94 -146z" />
    <glyph glyph-name="quotedblright" unicode="&#x201d;" horiz-adv-x="389" 
d="M62 504v45c43 9 49 66 49 102h-49v99h94v-99c0 -62 -19 -125 -94 -147zM233 504v45c43 9 49 66 49 102h-49v99h94l-1 -99c-1 -62 -18 -125 -93 -147z" />
    <glyph glyph-name="guillemotright" unicode="&#xbb;" 
d="M415 278l-151 -153v83l100 102l-100 102v83l151 -156v-61zM236 278l-151 -153v83l100 102l-100 102v83l151 -156v-61z" />
    <glyph glyph-name="ellipsis" unicode="&#x2026;" horiz-adv-x="1000" 
d="M212 0h-91v100h91v-100zM545 0h-91v100h91v-100zM878 100v-100h-91v100h91z" />
    <glyph glyph-name="perthousand" unicode="&#x2030;" horiz-adv-x="1111" 
d="M718 186c0 -139 -39 -187 -136 -186c-83 1 -134 50 -134 189c0 93 32 173 139 173c103 0 131 -88 131 -176zM582 306c-67 0 -67 -87 -67 -137c0 -46 7 -113 68 -113s68 67 68 113c0 50 0 137 -69 137zM317 560c0 -139 -42 -184 -139 -182c-83 1 -131 46 -131 185
c0 93 32 173 139 173c103 0 131 -88 131 -176zM181 680c-67 0 -67 -89 -67 -139c0 -46 7 -107 68 -107s68 61 68 107c0 50 0 139 -69 139zM1071 186c0 -139 -38 -188 -135 -186c-83 2 -135 50 -135 189c0 93 32 173 139 173c103 0 131 -88 131 -176zM935 306
c-67 0 -67 -87 -67 -137c0 -46 7 -113 68 -113s68 67 68 113c0 50 0 137 -69 137zM579 750l-341 -766h-53l339 766h55z" />
    <glyph glyph-name="questiondown" unicode="&#xbf;" 
d="M353 46h87c5 -121 -51 -236 -198 -236c-122 0 -204 72 -204 188c0 133 79 169 149 272c31 45 26 61 26 117h89c0 -103 -9 -127 -79 -205c-49 -52 -94 -103 -94 -178c0 -59 27 -124 101 -124c105 0 124 85 123 166zM211 559h91v-100h-91v100z" />
    <glyph glyph-name="grave" unicode="`" horiz-adv-x="333" 
d="M35 765h109l89 -141h-67z" />
    <glyph glyph-name="acute" unicode="&#xb4;" horiz-adv-x="333" 
d="M100 624l89 141h109l-131 -141h-67z" />
    <glyph glyph-name="circumflex" unicode="&#x2c6;" horiz-adv-x="333" 
d="M233 624l-66 94l-66 -94h-80l99 141h93l100 -141h-80z" />
    <glyph glyph-name="tilde" unicode="&#x2dc;" horiz-adv-x="333" 
d="M289 749h48c-5 -57 -39 -109 -102 -109c-21 0 -51 11 -71 18c-22 8 -49 20 -73 20c-23 0 -44 -23 -46 -45h-48c5 57 39 109 102 109c21 0 51 -11 71 -18c22 -8 49 -20 73 -20c23 0 44 23 46 45z" />
    <glyph glyph-name="macron" unicode="&#xaf;" horiz-adv-x="333" 
d="M323 657h-313v58h313v-58z" />
    <glyph glyph-name="breve" unicode="&#x2d8;" horiz-adv-x="333" 
d="M12 765h49c12 -55 52 -77 106 -77c56 0 92 20 105 77h49c-4 -95 -69 -136 -158 -136c-82 0 -147 41 -151 136z" />
    <glyph glyph-name="dotaccent" unicode="&#x2d9;" horiz-adv-x="250" 
d="M165 650h-79v100h79v-100z" />
    <glyph glyph-name="dieresis" unicode="&#xa8;" horiz-adv-x="333" 
d="M52 750h79v-100h-79v100zM281 650h-79v100h79v-100z" />
    <glyph glyph-name="ring" unicode="&#x2da;" horiz-adv-x="250" 
d="M125 593c-55 0 -102 46 -102 102c0 55 47 101 102 101s102 -45 102 -101s-46 -102 -102 -102zM125 756c-32 0 -62 -29 -62 -61s29 -62 62 -62s62 29 62 62s-30 61 -62 61z" />
    <glyph glyph-name="cedilla" unicode="&#xb8;" horiz-adv-x="333" 
d="M118 -105l-17 19l63 86h48l-46 -60l2 -2c31 9 113 0 113 -70c0 -73 -70 -94 -132 -92c-29 4 -56 10 -83 21l17 40c22 -8 41 -15 65 -15c32 0 42 10 53 23c9 11 6 42 -23 54c-20 8 -41 2 -60 -4z" />
    <glyph glyph-name="hungarumlaut" unicode="&#x2dd;" horiz-adv-x="333" 
d="M61 624l89 141h109l-131 -141h-67zM242 624l89 141h109l-131 -141h-67z" />
    <glyph glyph-name="ogonek" unicode="&#x2db;" horiz-adv-x="333" 
d="M29 13h67c-13 -20 -27 -62 -27 -85c0 -36 27 -52 65 -49c43 -2 56 14 74 29v-79c-30 -14 -58 -20 -84 -20c-59 0 -127 30 -124 98c0 32 16 77 29 106z" />
    <glyph glyph-name="caron" unicode="&#x2c7;" horiz-adv-x="333" 
d="M101 765l66 -94l66 94h80l-100 -141h-93l-99 141h80z" />
    <glyph glyph-name="emdash" unicode="&#x2014;" horiz-adv-x="1000" 
d="M0 275v70h1000v-70h-1000z" />
    <glyph glyph-name="AE" unicode="&#xc6;" horiz-adv-x="833" 
d="M229 290h197v385h-14zM427 0v215h-233l-100 -215h-94l366 750h419v-75h-276v-248h257v-75h-257v-277h273v-75h-355z" />
    <glyph glyph-name="ordfeminine" unicode="&#xaa;" horiz-adv-x="300" 
d="M276 457v-35c-4 -1 -8 -1 -12 -2c-46 -2 -61 2 -65 47h-2c-11 -29 -45 -54 -79 -54c-72 0 -93 37 -93 98c0 12 2 60 52 81c29 12 102 37 109 42c11 8 9 21 9 38c0 38 -15 52 -57 52c-47 0 -53 -19 -53 -58h-46c-2 69 35 99 108 99c107 0 98 -83 98 -91v-191
c0 -9 -2 -21 9 -26c7 -1 15 -1 22 0zM191 521v81c-25 -14 -53 -24 -81 -36c-24 -10 -31 -35 -31 -58c0 -33 8 -55 50 -55c20 0 62 14 62 68z" />
    <glyph glyph-name="Lslash" unicode="&#x141;" 
d="M83 0v325l-96 -81v88l96 81v337h83v-267l136 116v-88l-136 -116v-320h306v-75h-389z" />
    <glyph glyph-name="Oslash" unicode="&#xd8;" horiz-adv-x="611" 
d="M162 195l267 429c-26 46 -64 63 -123 66c-128 7 -162 -131 -161 -298c1 -81 6 -147 17 -197zM449 574l-270 -435c23 -52 63 -82 129 -82c138 0 160 118 161 335c0 68 -5 132 -20 182zM130 61l-64 -104l-37 24l76 122c-38 77 -46 183 -46 291c-1 172 25 371 248 371
c78 0 132 -23 169 -65l60 96l37 -22l-70 -112c42 -74 53 -175 52 -268c-1 -208 -31 -412 -250 -412c-83 0 -139 32 -175 79z" />
    <glyph glyph-name="OE" unicode="&#x152;" horiz-adv-x="833" 
d="M512 75h273v-75h-351v59h-2c-43 -51 -77 -75 -136 -77c-114 -4 -178 68 -210 158c-24 78 -31 148 -30 234c1 93 4 179 43 265c36 80 104 126 191 126c54 0 105 -27 142 -79h2v64h353v-75h-275v-246h257v-75h-257v-279zM426 248v292c0 102 -50 150 -126 150
c-74 0 -124 -42 -141 -128c-11 -57 -17 -147 -17 -207c0 -102 7 -298 149 -298c85 0 139 45 135 191z" />
    <glyph glyph-name="ordmasculine" unicode="&#xba;" horiz-adv-x="300" 
d="M279 600c0 -36 -2 -72 -14 -107c-19 -55 -57 -80 -110 -80c-63 0 -101 25 -120 80c-12 35 -15 71 -15 107c0 31 6 62 14 88c16 48 62 77 116 77s100 -29 116 -77c8 -26 13 -57 13 -88zM74 585c0 -78 16 -132 76 -132c61 0 75 54 75 132c0 101 -21 140 -75 140
c-53 0 -76 -39 -76 -140z" />
    <glyph glyph-name="ae" unicode="&#xe6;" horiz-adv-x="667" 
d="M630 270h-260c0 -17 -6 -137 23 -191c15 -24 40 -27 69 -27c74 0 88 71 89 129h73c1 -103 -45 -196 -161 -196c-71 0 -113 28 -142 91c-37 -61 -87 -91 -158 -91c-94 0 -137 64 -137 150c0 82 29 120 72 145c44 26 102 37 161 64c30 14 36 42 36 68c0 61 -26 90 -88 90
c-63 0 -85 -42 -83 -98h-75c-1 68 30 167 156 167c51 0 102 -19 132 -63c29 39 73 61 122 61c169 0 173 -171 171 -299zM370 335h178c0 14 11 167 -85 167c-94 0 -91 -97 -93 -167zM288 218v81l-57 -27c-67 -31 -123 -50 -123 -135c0 -49 23 -85 77 -85c36 0 65 12 86 41
c18 24 17 64 17 125z" />
    <glyph glyph-name="dotlessi" unicode="&#x131;" horiz-adv-x="222" 
d="M151 0h-79v556h79v-556z" />
    <glyph glyph-name="lslash" unicode="&#x142;" horiz-adv-x="222" 
d="M72 0v372l-80 -55v74l80 53v306h79v-255l80 53v-68l-80 -55v-425h-79z" />
    <glyph glyph-name="oslash" unicode="&#xf8;" 
d="M147 151l197 286c-17 46 -48 67 -93 67c-82 0 -118 -63 -118 -231c0 -47 7 -89 14 -122zM356 391l-194 -283c17 -35 45 -56 89 -56c93 0 116 90 116 221c0 48 -4 88 -11 118zM115 40l-59 -86l-31 19l68 99c-20 34 -42 96 -42 226c0 169 62 273 199 273
c58 0 109 -21 143 -63l51 74l28 -23l-57 -83c18 -32 34 -108 34 -178c0 -240 -81 -313 -191 -313c-64 0 -111 18 -143 55z" />
    <glyph glyph-name="oe" unicode="&#x153;" horiz-adv-x="722" 
d="M674 274h-260l1 -55c1 -67 3 -167 94 -167c75 0 83 75 90 132h75c-5 -75 -38 -199 -161 -199c-61 0 -111 27 -142 80c-31 -50 -82 -80 -141 -80c-180 0 -190 167 -190 304c0 193 62 282 183 282c60 0 119 -25 151 -78c28 48 71 78 128 78c206 0 172 -265 172 -297z
M122 266c0 -76 -3 -214 107 -214c95 0 104 81 104 234c0 158 -23 218 -99 218c-116 0 -112 -157 -112 -238zM414 339h185c-4 64 6 165 -88 165c-92 0 -94 -101 -97 -165z" />
    <glyph glyph-name="germandbls" unicode="&#xdf;" 
d="M231 393v67c79 0 112 36 112 113c0 68 -28 125 -103 125c-33 0 -59 -19 -76 -46c-13 -28 -14 -67 -14 -98v-554h-79v538c0 61 2 113 41 164c34 45 82 63 137 63c109 0 170 -80 170 -185c0 -64 -17 -119 -79 -148c87 -35 105 -120 105 -205c0 -112 -31 -234 -156 -232
c-22 0 -50 2 -69 15v78c21 -18 53 -31 84 -26c50 12 59 93 59 151c0 47 1 120 -32 154c-26 28 -66 25 -100 26z" />
    <glyph glyph-name="onesuperior" unicode="&#xb9;" horiz-adv-x="300" 
d="M171 624h-104v43c70 1 108 13 116 83h50v-450h-62v324z" />
    <glyph glyph-name="logicalnot" unicode="&#xac;" 
d="M387 117v197h-343v70h413v-267h-70z" />
    <glyph glyph-name="mu" unicode="&#xb5;" horiz-adv-x="516" 
d="M343 0v73h-2c-27 -57 -78 -88 -132 -88c-21 0 -39 13 -55 18v-192h-79v745h79v-432c0 -47 15 -72 71 -72c38 0 73 17 95 49c18 28 23 66 23 98v357h79v-556h-79z" />
    <glyph glyph-name="trademark" unicode="&#x2122;" horiz-adv-x="750" 
d="M719 750v-421h-55v361h-2l-118 -361h-32l-115 361h-2v-361h-55v421h89l98 -297h2l102 297h88zM280 750v-60h-109v-361h-61v361h-110v60h280z" />
    <glyph glyph-name="Eth" unicode="&#xd0;" horiz-adv-x="611" 
d="M82 0v412h-73v53h73v285h206c234 0 260 -190 260 -375c0 -183 -42 -375 -245 -375h-221zM165 675v-210h149v-53h-149v-337h133c122 0 164 91 164 315c0 171 -30 285 -164 285h-133z" />
    <glyph glyph-name="onehalf" unicode="&#xbd;" horiz-adv-x="750" 
d="M91 0l452 750h63l-452 -750h-63zM146 624h-104v43c70 1 108 13 116 83h50v-450h-62v324zM626 184l-88 -74c-18 -19 -29 -30 -30 -58h201v-52h-262c1 32 5 65 20 97c7 16 22 42 36 55l90 80c32 28 46 56 46 94c0 42 -14 72 -64 72c-59 0 -63 -54 -62 -101h-62v28
c0 33 9 64 31 90c15 14 42 35 97 35c83 0 125 -51 125 -125c0 -66 -28 -99 -78 -141z" />
    <glyph glyph-name="plusminus" unicode="&#xb1;" 
d="M215 349v156h70v-156h172v-70h-172v-159h-70v159h-171v70h171zM44 0v70h413v-70h-413z" />
    <glyph glyph-name="Thorn" unicode="&#xde;" horiz-adv-x="556" 
d="M169 569v-282h81c114 0 183 17 183 146c0 121 -77 136 -178 136h-86zM86 0v750h83v-106h114c58 0 131 -7 175 -49c45 -42 61 -100 61 -160c0 -83 -24 -166 -106 -201c-52 -22 -137 -22 -194 -22h-50v-212h-83z" />
    <glyph glyph-name="onequarter" unicode="&#xbc;" horiz-adv-x="750" 
d="M616 372l-133 -215h135v215h-2zM143 0l452 750h63l-452 -750h-63zM441 161l179 289h58v-293h38v-50h-38v-107h-60v107h-177v54zM138 624h-104v43c70 1 108 13 116 83h50v-450h-62v324z" />
    <glyph glyph-name="divide" unicode="&#xf7;" 
d="M44 219v70h413v-70h-413zM289 405h-79v100h79v-100zM289 3h-79v100h79v-100z" />
    <glyph glyph-name="brokenbar" unicode="&#xa6;" horiz-adv-x="250" 
d="M93 -175v350h64v-350h-64zM93 675h64v-350h-64v350z" />
    <glyph glyph-name="degree" unicode="&#xb0;" horiz-adv-x="400" 
d="M350 600c0 -83 -68 -150 -150 -150c-83 0 -150 67 -150 150c-1 82 67 150 150 150c82 0 150 -68 150 -150zM288 600c0 48 -40 88 -89 88c-48 0 -88 -40 -87 -88c0 -49 39 -88 88 -88c48 0 88 39 88 88z" />
    <glyph glyph-name="thorn" unicode="&#xfe;" 
d="M151 279c0 -113 11 -227 106 -227c82 0 108 86 108 236c0 108 -19 216 -109 216c-103 0 -105 -146 -105 -225zM72 -188v938h79v-256h2c22 52 67 77 112 77c141 0 182 -131 182 -277c0 -122 -28 -309 -178 -309c-56 0 -88 28 -116 73h-2v-246h-79z" />
    <glyph glyph-name="threequarters" unicode="&#xbe;" horiz-adv-x="750" 
d="M630 372l-133 -215h135v215h-2zM157 0l452 750h63l-452 -750h-63zM455 161l179 289h58v-293h38v-50h-38v-107h-60v107h-177v54zM119 504v56c42 2 91 -13 91 70c0 44 -12 68 -60 68c-52 0 -62 -36 -62 -81h-58c-2 75 34 133 123 133c72 0 121 -44 121 -112
c0 -48 -16 -84 -68 -100v-2c56 -11 81 -52 81 -103c0 -84 -40 -142 -137 -142s-131 59 -129 141h59c-5 -48 14 -90 74 -90c46 0 70 30 70 76c0 72 -26 87 -105 86z" />
    <glyph glyph-name="twosuperior" unicode="&#xb2;" horiz-adv-x="300" 
d="M198 484l-88 -74c-18 -19 -29 -30 -30 -58h201v-52h-262c1 32 5 65 20 97c7 16 22 42 36 55l90 80c32 28 46 56 46 94c0 42 -14 72 -64 72c-59 0 -63 -54 -62 -101h-62v28c0 33 9 64 31 90c15 14 42 35 97 35c83 0 125 -51 125 -125c0 -66 -28 -99 -78 -141z" />
    <glyph glyph-name="registered" unicode="&#xae;" horiz-adv-x="800" 
d="M401 765c216 0 391 -174 391 -390c0 -219 -175 -393 -391 -393c-217 0 -393 174 -393 393c0 216 176 390 393 390zM401 707c-185 0 -334 -149 -334 -333c0 -186 149 -334 334 -334s332 148 332 334c0 184 -147 333 -332 333zM465 357l131 -202h-65l-124 202h-97v-202h-56
v440h193c36 0 73 0 106 -24c32 -18 51 -58 50 -94c0 -87 -62 -119 -138 -120zM310 399h81c61 0 156 -9 156 80c0 66 -59 74 -113 74h-124v-154z" />
    <glyph glyph-name="minus" unicode="&#x2212;" 
d="M44 219v70h413v-70h-413z" />
    <glyph glyph-name="eth" unicode="&#xf0;" 
d="M100 672l76 53c-19 19 -45 48 -65 64l45 42c32 -28 41 -37 73 -69l71 51l29 -31l-72 -51c118 -120 192 -258 192 -434c0 -241 -77 -312 -199 -312c-120 0 -199 72 -199 312c0 168 62 274 199 274c20 0 43 -5 56 -15l2 2c-19 39 -71 101 -103 136l-76 -53zM133 272
c0 -131 25 -220 117 -220c94 0 117 89 117 220c0 168 -34 232 -117 232c-81 0 -117 -64 -117 -232z" />
    <glyph glyph-name="multiply" unicode="&#xd7;" 
d="M201 254l-157 157l50 49l156 -157l158 158l49 -50l-157 -157l157 -157l-50 -49l-157 157l-158 -157l-48 49z" />
    <glyph glyph-name="threesuperior" unicode="&#xb3;" horiz-adv-x="300" 
d="M115 504v56c42 2 91 -13 91 70c0 44 -12 68 -60 68c-52 0 -62 -36 -62 -81h-58c-2 75 34 133 123 133c72 0 121 -44 121 -112c0 -48 -16 -84 -68 -100v-2c56 -11 81 -52 81 -103c0 -84 -40 -142 -137 -142s-131 59 -129 141h59c-5 -48 14 -90 74 -90c46 0 70 30 70 76
c0 72 -26 87 -105 86z" />
    <glyph glyph-name="copyright" unicode="&#xa9;" horiz-adv-x="800" 
d="M401 -18c-217 0 -393 174 -393 393c0 214 176 390 393 390c216 0 391 -176 391 -390c0 -219 -175 -393 -391 -393zM401 40c185 0 332 149 332 335c0 184 -147 332 -332 332s-334 -148 -334 -332c0 -186 149 -335 334 -335zM542 303h58c-10 -93 -91 -153 -182 -153
c-132 0 -218 99 -218 228c0 128 82 225 215 225c94 0 169 -55 185 -149h-58c-11 62 -64 101 -126 101c-102 0 -157 -79 -157 -176c0 -95 58 -181 159 -181c62 0 117 40 124 105z" />
    <glyph glyph-name="Aacute" unicode="&#xc1;" horiz-adv-x="556" 
d="M11 0l214 750h110l211 -750h-92l-59 216h-237l-55 -216h-92zM376 291l-97 399h-2l-99 -399h198zM212 818l89 141h109l-131 -141h-67z" />
    <glyph glyph-name="Acircumflex" unicode="&#xc2;" horiz-adv-x="556" 
d="M11 0l214 750h110l211 -750h-92l-59 216h-237l-55 -216h-92zM376 291l-97 399h-2l-99 -399h198zM345 818l-66 94l-66 -94h-80l99 141h93l100 -141h-80z" />
    <glyph glyph-name="Adieresis" unicode="&#xc4;" horiz-adv-x="556" 
d="M11 0l214 750h110l211 -750h-92l-59 216h-237l-55 -216h-92zM376 291l-97 399h-2l-99 -399h198zM164 944h79v-100h-79v100zM393 844h-79v100h79v-100z" />
    <glyph glyph-name="Agrave" unicode="&#xc0;" horiz-adv-x="556" 
d="M11 0l214 750h110l211 -750h-92l-59 216h-237l-55 -216h-92zM376 291l-97 399h-2l-99 -399h198zM147 959h109l89 -141h-67z" />
    <glyph glyph-name="Aring" unicode="&#xc5;" horiz-adv-x="556" 
d="M11 0l214 750h110l211 -750h-92l-59 216h-237l-55 -216h-92zM376 291l-97 399h-2l-99 -399h198zM278 787c-55 0 -102 46 -102 102c0 55 47 101 102 101s102 -45 102 -101s-46 -102 -102 -102zM278 950c-32 0 -62 -29 -62 -61s29 -62 62 -62s62 29 62 62s-30 61 -62 61z
" />
    <glyph glyph-name="Atilde" unicode="&#xc3;" horiz-adv-x="556" 
d="M11 0l214 750h110l211 -750h-92l-59 216h-237l-55 -216h-92zM376 291l-97 399h-2l-99 -399h198zM401 943h48c-5 -57 -39 -109 -102 -109c-21 0 -51 11 -71 18c-22 8 -49 20 -73 20c-23 0 -44 -23 -46 -45h-48c5 57 39 109 102 109c21 0 51 -11 71 -18
c22 -8 49 -20 73 -20c23 0 44 23 46 45z" />
    <glyph glyph-name="Ccedilla" unicode="&#xc7;" horiz-adv-x="556" 
d="M172 -203l17 40c22 -8 41 -15 65 -15c32 0 42 10 53 23c9 11 6 42 -23 54c-20 8 -41 2 -60 -4l-17 19l51 70c-198 22 -205 231 -205 400s25 381 238 381c142 0 216 -106 212 -240h-83c-2 89 -31 165 -135 165c-144 0 -146 -205 -146 -304c-4 -102 -6 -329 146 -329
c99 0 120 81 130 163c2 17 3 34 5 51h83c-2 -15 -2 -31 -4 -46c-5 -61 -8 -107 -44 -159c-37 -51 -85 -80 -150 -83l-33 -43l2 -2c31 9 113 0 113 -70c0 -73 -70 -94 -132 -92c-29 4 -56 10 -83 21z" />
    <glyph glyph-name="Eacute" unicode="&#xc9;" 
d="M451 0h-377v750h375v-75h-292v-248h274v-75h-274v-277h294v-75zM184 818l89 141h109l-131 -141h-67z" />
    <glyph glyph-name="Ecircumflex" unicode="&#xca;" 
d="M451 0h-377v750h375v-75h-292v-248h274v-75h-274v-277h294v-75zM317 818l-66 94l-66 -94h-80l99 141h93l100 -141h-80z" />
    <glyph glyph-name="Edieresis" unicode="&#xcb;" 
d="M451 0h-377v750h375v-75h-292v-248h274v-75h-274v-277h294v-75zM136 944h79v-100h-79v100zM365 844h-79v100h79v-100z" />
    <glyph glyph-name="Egrave" unicode="&#xc8;" 
d="M451 0h-377v750h375v-75h-292v-248h274v-75h-274v-277h294v-75zM119 959h109l89 -141h-67z" />
    <glyph glyph-name="Iacute" unicode="&#xcd;" horiz-adv-x="278" 
d="M181 0h-83v750h83v-750zM73 818l89 141h109l-131 -141h-67z" />
    <glyph glyph-name="Icircumflex" unicode="&#xce;" horiz-adv-x="278" 
d="M181 0h-83v750h83v-750zM206 818l-66 94l-66 -94h-80l99 141h93l100 -141h-80z" />
    <glyph glyph-name="Idieresis" unicode="&#xcf;" horiz-adv-x="278" 
d="M181 0h-83v750h83v-750zM25 944h79v-100h-79v100zM254 844h-79v100h79v-100z" />
    <glyph glyph-name="Igrave" unicode="&#xcc;" horiz-adv-x="278" 
d="M181 0h-83v750h83v-750zM8 959h109l89 -141h-67z" />
    <glyph glyph-name="Ntilde" unicode="&#xd1;" horiz-adv-x="611" 
d="M451 138v612h83v-750h-136l-210 600c-12 34 -21 68 -28 113h-2c1 -38 2 -77 2 -115v-598h-83v750h135l213 -614c9 -23 16 -47 26 -82h2c-1 27 -2 56 -2 84zM428 943h48c-5 -57 -39 -109 -102 -109c-21 0 -51 11 -71 18c-22 8 -49 20 -73 20c-23 0 -44 -23 -46 -45h-48
c5 57 39 109 102 109c21 0 51 -11 71 -18c22 -8 49 -20 73 -20c23 0 44 23 46 45z" />
    <glyph glyph-name="Oacute" unicode="&#xd3;" horiz-adv-x="611" 
d="M59 391c0 172 26 374 249 374c215 0 245 -195 245 -365v-9c-1 -208 -28 -409 -247 -409s-245 201 -247 409zM467 389v7c0 164 -33 294 -163 294c-126 0 -159 -130 -159 -294v-7c1 -217 23 -332 161 -332s160 115 161 332zM239 818l89 141h109l-131 -141h-67z" />
    <glyph glyph-name="Ocircumflex" unicode="&#xd4;" horiz-adv-x="611" 
d="M59 391c0 172 26 374 249 374c215 0 245 -195 245 -365v-9c-1 -208 -28 -409 -247 -409s-245 201 -247 409zM467 389v7c0 164 -33 294 -163 294c-126 0 -159 -130 -159 -294v-7c1 -217 23 -332 161 -332s160 115 161 332zM372 818l-66 94l-66 -94h-80l99 141h93l100 -141
h-80z" />
    <glyph glyph-name="Odieresis" unicode="&#xd6;" horiz-adv-x="611" 
d="M59 391c0 172 26 374 249 374c215 0 245 -195 245 -365v-9c-1 -208 -28 -409 -247 -409s-245 201 -247 409zM467 389v7c0 164 -33 294 -163 294c-126 0 -159 -130 -159 -294v-7c1 -217 23 -332 161 -332s160 115 161 332zM191 944h79v-100h-79v100zM420 844h-79v100h79
v-100z" />
    <glyph glyph-name="Ograve" unicode="&#xd2;" horiz-adv-x="611" 
d="M59 391c0 172 26 374 249 374c215 0 245 -195 245 -365v-9c-1 -208 -28 -409 -247 -409s-245 201 -247 409zM467 389v7c0 164 -33 294 -163 294c-126 0 -159 -130 -159 -294v-7c1 -217 23 -332 161 -332s160 115 161 332zM174 959h109l89 -141h-67z" />
    <glyph glyph-name="Otilde" unicode="&#xd5;" horiz-adv-x="611" 
d="M59 391c0 172 26 374 249 374c215 0 245 -195 245 -365v-9c-1 -208 -28 -409 -247 -409s-245 201 -247 409zM467 389v7c0 164 -33 294 -163 294c-126 0 -159 -130 -159 -294v-7c1 -217 23 -332 161 -332s160 115 161 332zM428 943h48c-5 -57 -39 -109 -102 -109
c-21 0 -51 11 -71 18c-22 8 -49 20 -73 20c-23 0 -44 -23 -46 -45h-48c5 57 39 109 102 109c21 0 51 -11 71 -18c22 -8 49 -20 73 -20c23 0 44 23 46 45z" />
    <glyph glyph-name="Scaron" unicode="&#x160;" horiz-adv-x="556" 
d="M483 553h-83c0 5 1 10 1 14c0 71 -42 123 -120 123c-121 0 -134 -76 -134 -134c0 -52 23 -84 71 -102l119 -45c142 -53 168 -103 168 -202c0 -142 -89 -225 -233 -225c-74 0 -162 21 -205 119c-16 37 -15 97 -16 137h83v-23c0 -98 26 -158 142 -158c84 0 143 43 143 131
c0 114 -46 115 -122 144c-41 16 -107 37 -147 58c-71 36 -89 96 -89 170c0 124 87 205 209 205c131 0 214 -65 214 -194c0 -6 -1 -12 -1 -18zM213 959l66 -94l66 94h80l-100 -141h-93l-99 141h80z" />
    <glyph glyph-name="Uacute" unicode="&#xda;" horiz-adv-x="611" 
d="M81 181v569h83v-546c0 -59 14 -147 142 -147s142 88 142 147v546h83v-569c0 -134 -89 -199 -225 -199s-225 65 -225 199zM239 818l89 141h109l-131 -141h-67z" />
    <glyph glyph-name="Ucircumflex" unicode="&#xdb;" horiz-adv-x="611" 
d="M81 181v569h83v-546c0 -59 14 -147 142 -147s142 88 142 147v546h83v-569c0 -134 -89 -199 -225 -199s-225 65 -225 199zM372 818l-66 94l-66 -94h-80l99 141h93l100 -141h-80z" />
    <glyph glyph-name="Udieresis" unicode="&#xdc;" horiz-adv-x="611" 
d="M81 181v569h83v-546c0 -59 14 -147 142 -147s142 88 142 147v546h83v-569c0 -134 -89 -199 -225 -199s-225 65 -225 199zM191 944h79v-100h-79v100zM420 844h-79v100h79v-100z" />
    <glyph glyph-name="Ugrave" unicode="&#xd9;" horiz-adv-x="611" 
d="M81 181v569h83v-546c0 -59 14 -147 142 -147s142 88 142 147v546h83v-569c0 -134 -89 -199 -225 -199s-225 65 -225 199zM174 959h109l89 -141h-67z" />
    <glyph glyph-name="Yacute" unicode="&#xdd;" horiz-adv-x="556" 
d="M103 750l175 -376l176 376h92l-227 -459v-291h-83v291l-225 459h92zM212 818l89 141h109l-131 -141h-67z" />
    <glyph glyph-name="Ydieresis" unicode="&#x178;" horiz-adv-x="556" 
d="M103 750l175 -376l176 376h92l-227 -459v-291h-83v291l-225 459h92zM164 944h79v-100h-79v100zM393 844h-79v100h79v-100z" />
    <glyph glyph-name="Zcaron" unicode="&#x17d;" 
d="M473 0h-445v72l354 603h-345v75h431v-72l-354 -603h359v-75zM185 959l66 -94l66 94h80l-100 -141h-93l-99 141h80z" />
    <glyph glyph-name="aacute" unicode="&#xe1;" horiz-adv-x="444" 
d="M287 165v135c-39 -23 -83 -40 -125 -60c-37 -17 -49 -58 -49 -96c0 -56 14 -92 78 -92c30 0 96 23 96 113zM417 58v-58c-6 -1 -12 -2 -18 -4c-8 0 -15 -1 -22 -1c-51 0 -71 13 -78 80h-2c-19 -49 -70 -90 -123 -90c-111 0 -143 62 -143 163c0 21 3 101 80 135
c45 20 157 62 167 70c14 11 15 27 15 48v16c0 63 -24 87 -88 87c-69 0 -81 -30 -81 -90v-8h-71v11c0 107 57 154 165 154c141 0 151 -101 151 -138v-341c0 -13 1 -27 14 -33c6 -1 11 -2 17 -2s12 1 17 1zM156 624l89 141h109l-131 -141h-67z" />
    <glyph glyph-name="acircumflex" unicode="&#xe2;" horiz-adv-x="444" 
d="M287 165v135c-39 -23 -83 -40 -125 -60c-37 -17 -49 -58 -49 -96c0 -56 14 -92 78 -92c30 0 96 23 96 113zM417 58v-58c-6 -1 -12 -2 -18 -4c-8 0 -15 -1 -22 -1c-51 0 -71 13 -78 80h-2c-19 -49 -70 -90 -123 -90c-111 0 -143 62 -143 163c0 21 3 101 80 135
c45 20 157 62 167 70c14 11 15 27 15 48v16c0 63 -24 87 -88 87c-69 0 -81 -30 -81 -90v-8h-71v11c0 107 57 154 165 154c141 0 151 -101 151 -138v-341c0 -13 1 -27 14 -33c6 -1 11 -2 17 -2s12 1 17 1zM289 624l-66 94l-66 -94h-80l99 141h93l100 -141h-80z" />
    <glyph glyph-name="adieresis" unicode="&#xe4;" horiz-adv-x="444" 
d="M287 165v135c-39 -23 -83 -40 -125 -60c-37 -17 -49 -58 -49 -96c0 -56 14 -92 78 -92c30 0 96 23 96 113zM417 58v-58c-6 -1 -12 -2 -18 -4c-8 0 -15 -1 -22 -1c-51 0 -71 13 -78 80h-2c-19 -49 -70 -90 -123 -90c-111 0 -143 62 -143 163c0 21 3 101 80 135
c45 20 157 62 167 70c14 11 15 27 15 48v16c0 63 -24 87 -88 87c-69 0 -81 -30 -81 -90v-8h-71v11c0 107 57 154 165 154c141 0 151 -101 151 -138v-341c0 -13 1 -27 14 -33c6 -1 11 -2 17 -2s12 1 17 1zM108 750h79v-100h-79v100zM337 650h-79v100h79v-100z" />
    <glyph glyph-name="agrave" unicode="&#xe0;" horiz-adv-x="444" 
d="M287 165v135c-39 -23 -83 -40 -125 -60c-37 -17 -49 -58 -49 -96c0 -56 14 -92 78 -92c30 0 96 23 96 113zM417 58v-58c-6 -1 -12 -2 -18 -4c-8 0 -15 -1 -22 -1c-51 0 -71 13 -78 80h-2c-19 -49 -70 -90 -123 -90c-111 0 -143 62 -143 163c0 21 3 101 80 135
c45 20 157 62 167 70c14 11 15 27 15 48v16c0 63 -24 87 -88 87c-69 0 -81 -30 -81 -90v-8h-71v11c0 107 57 154 165 154c141 0 151 -101 151 -138v-341c0 -13 1 -27 14 -33c6 -1 11 -2 17 -2s12 1 17 1zM91 765h109l89 -141h-67z" />
    <glyph glyph-name="aring" unicode="&#xe5;" horiz-adv-x="444" 
d="M287 165v135c-39 -23 -83 -40 -125 -60c-37 -17 -49 -58 -49 -96c0 -56 14 -92 78 -92c30 0 96 23 96 113zM417 58v-58c-6 -1 -12 -2 -18 -4c-8 0 -15 -1 -22 -1c-51 0 -71 13 -78 80h-2c-19 -49 -70 -90 -123 -90c-111 0 -143 62 -143 163c0 21 3 101 80 135
c45 20 157 62 167 70c14 11 15 27 15 48v16c0 63 -24 87 -88 87c-69 0 -81 -30 -81 -90v-8h-71v11c0 107 57 154 165 154c141 0 151 -101 151 -138v-341c0 -13 1 -27 14 -33c6 -1 11 -2 17 -2s12 1 17 1zM207 623c-55 0 -102 46 -102 102c0 55 47 101 102 101
s102 -45 102 -101s-46 -102 -102 -102zM207 786c-32 0 -62 -29 -62 -61s29 -62 62 -62s62 29 62 62s-30 61 -62 61z" />
    <glyph glyph-name="atilde" unicode="&#xe3;" horiz-adv-x="444" 
d="M287 165v135c-39 -23 -83 -40 -125 -60c-37 -17 -49 -58 -49 -96c0 -56 14 -92 78 -92c30 0 96 23 96 113zM417 58v-58c-6 -1 -12 -2 -18 -4c-8 0 -15 -1 -22 -1c-51 0 -71 13 -78 80h-2c-19 -49 -70 -90 -123 -90c-111 0 -143 62 -143 163c0 21 3 101 80 135
c45 20 157 62 167 70c14 11 15 27 15 48v16c0 63 -24 87 -88 87c-69 0 -81 -30 -81 -90v-8h-71v11c0 107 57 154 165 154c141 0 151 -101 151 -138v-341c0 -13 1 -27 14 -33c6 -1 11 -2 17 -2s12 1 17 1zM345 749h48c-5 -57 -39 -109 -102 -109c-21 0 -51 11 -71 18
c-22 8 -49 20 -73 20c-23 0 -44 -23 -46 -45h-48c5 57 39 109 102 109c21 0 51 -11 71 -18c22 -8 49 -20 73 -20c23 0 44 23 46 45z" />
    <glyph glyph-name="ccedilla" unicode="&#xe7;" horiz-adv-x="444" 
d="M157 -86l53 73c-145 15 -166 148 -166 284s22 300 192 300c112 0 166 -87 165 -190h-74c-1 61 -17 123 -92 123c-115 0 -109 -171 -109 -250c0 -73 5 -202 106 -202c86 0 94 74 98 142h75c-3 -101 -38 -197 -146 -207l-37 -47l2 -2c31 9 113 0 113 -70
c0 -73 -70 -94 -132 -92c-29 4 -56 10 -83 21l17 40c22 -8 41 -15 65 -15c32 0 42 10 53 23c9 11 6 42 -23 54c-20 8 -41 2 -60 -4z" />
    <glyph glyph-name="eacute" unicode="&#xe9;" horiz-adv-x="444" 
d="M125 336h188c-3 65 1 168 -91 168s-94 -102 -97 -168zM317 185h74v-13c0 -103 -56 -187 -168 -187c-105 0 -180 70 -180 294c0 117 31 292 178 292c180 0 170 -170 174 -300h-270c2 -75 -11 -219 100 -219c69 0 93 58 93 116c0 5 -1 11 -1 17zM156 624l89 141h109
l-131 -141h-67z" />
    <glyph glyph-name="ecircumflex" unicode="&#xea;" horiz-adv-x="444" 
d="M125 336h188c-3 65 1 168 -91 168s-94 -102 -97 -168zM317 185h74v-13c0 -103 -56 -187 -168 -187c-105 0 -180 70 -180 294c0 117 31 292 178 292c180 0 170 -170 174 -300h-270c2 -75 -11 -219 100 -219c69 0 93 58 93 116c0 5 -1 11 -1 17zM289 624l-66 94l-66 -94
h-80l99 141h93l100 -141h-80z" />
    <glyph glyph-name="edieresis" unicode="&#xeb;" horiz-adv-x="444" 
d="M125 336h188c-3 65 1 168 -91 168s-94 -102 -97 -168zM317 185h74v-13c0 -103 -56 -187 -168 -187c-105 0 -180 70 -180 294c0 117 31 292 178 292c180 0 170 -170 174 -300h-270c2 -75 -11 -219 100 -219c69 0 93 58 93 116c0 5 -1 11 -1 17zM108 750h79v-100h-79v100z
M337 650h-79v100h79v-100z" />
    <glyph glyph-name="egrave" unicode="&#xe8;" horiz-adv-x="444" 
d="M125 336h188c-3 65 1 168 -91 168s-94 -102 -97 -168zM317 185h74v-13c0 -103 -56 -187 -168 -187c-105 0 -180 70 -180 294c0 117 31 292 178 292c180 0 170 -170 174 -300h-270c2 -75 -11 -219 100 -219c69 0 93 58 93 116c0 5 -1 11 -1 17zM91 765h109l89 -141h-67z
" />
    <glyph glyph-name="iacute" unicode="&#xed;" horiz-adv-x="222" 
d="M151 0h-79v556h79v-556zM45 624l89 141h109l-131 -141h-67z" />
    <glyph glyph-name="icircumflex" unicode="&#xee;" horiz-adv-x="222" 
d="M151 0h-79v556h79v-556zM178 624l-66 94l-66 -94h-80l99 141h93l100 -141h-80z" />
    <glyph glyph-name="idieresis" unicode="&#xef;" horiz-adv-x="222" 
d="M151 0h-79v556h79v-556zM-3 750h79v-100h-79v100zM226 650h-79v100h79v-100z" />
    <glyph glyph-name="igrave" unicode="&#xec;" horiz-adv-x="222" 
d="M151 0h-79v556h79v-556zM-20 765h109l89 -141h-67z" />
    <glyph glyph-name="ntilde" unicode="&#xf1;" 
d="M150 556v-61h2c38 48 79 76 139 76c83 0 137 -44 137 -142v-429h-79v407c0 58 -19 97 -83 97c-29 0 -57 -11 -78 -31c-32 -29 -36 -61 -36 -101v-372h-79v556h77zM373 749h48c-5 -57 -39 -109 -102 -109c-21 0 -51 11 -71 18c-22 8 -49 20 -73 20c-23 0 -44 -23 -46 -45
h-48c5 57 39 109 102 109c21 0 51 -11 71 -18c22 -8 49 -20 73 -20c23 0 44 23 46 45z" />
    <glyph glyph-name="oacute" unicode="&#xf3;" 
d="M449 297c0 -241 -77 -312 -199 -312c-120 0 -199 72 -199 312c0 168 62 274 199 274s199 -106 199 -274zM367 272c0 168 -34 232 -117 232c-81 0 -117 -64 -117 -232c0 -131 25 -220 117 -220c94 0 117 89 117 220zM184 624l89 141h109l-131 -141h-67z" />
    <glyph glyph-name="ocircumflex" unicode="&#xf4;" 
d="M449 297c0 -241 -77 -312 -199 -312c-120 0 -199 72 -199 312c0 168 62 274 199 274s199 -106 199 -274zM367 272c0 168 -34 232 -117 232c-81 0 -117 -64 -117 -232c0 -131 25 -220 117 -220c94 0 117 89 117 220zM317 624l-66 94l-66 -94h-80l99 141h93l100 -141h-80z
" />
    <glyph glyph-name="odieresis" unicode="&#xf6;" 
d="M449 297c0 -241 -77 -312 -199 -312c-120 0 -199 72 -199 312c0 168 62 274 199 274s199 -106 199 -274zM367 272c0 168 -34 232 -117 232c-81 0 -117 -64 -117 -232c0 -131 25 -220 117 -220c94 0 117 89 117 220zM136 750h79v-100h-79v100zM365 650h-79v100h79v-100z
" />
    <glyph glyph-name="ograve" unicode="&#xf2;" 
d="M449 297c0 -241 -77 -312 -199 -312c-120 0 -199 72 -199 312c0 168 62 274 199 274s199 -106 199 -274zM367 272c0 168 -34 232 -117 232c-81 0 -117 -64 -117 -232c0 -131 25 -220 117 -220c94 0 117 89 117 220zM119 765h109l89 -141h-67z" />
    <glyph glyph-name="otilde" unicode="&#xf5;" 
d="M449 297c0 -241 -77 -312 -199 -312c-120 0 -199 72 -199 312c0 168 62 274 199 274s199 -106 199 -274zM367 272c0 168 -34 232 -117 232c-81 0 -117 -64 -117 -232c0 -131 25 -220 117 -220c94 0 117 89 117 220zM373 749h48c-5 -57 -39 -109 -102 -109
c-21 0 -51 11 -71 18c-22 8 -49 20 -73 20c-23 0 -44 -23 -46 -45h-48c5 57 39 109 102 109c21 0 51 -11 71 -18c22 -8 49 -20 73 -20c23 0 44 23 46 45z" />
    <glyph glyph-name="scaron" unicode="&#x161;" horiz-adv-x="444" 
d="M380 407h-77v11c0 58 -25 86 -88 86c-56 0 -88 -26 -88 -84c0 -72 59 -81 113 -104c80 -36 160 -56 160 -160c0 -105 -73 -171 -185 -171h-7c-48 0 -106 17 -134 58c-29 39 -31 73 -31 107v12h75v-11c0 -62 24 -99 94 -99c64 0 106 26 106 94c0 79 -80 86 -137 110
c-86 32 -136 61 -136 158c0 96 67 157 163 157c108 0 172 -48 172 -159v-5zM157 765l66 -94l66 94h80l-100 -141h-93l-99 141h80z" />
    <glyph glyph-name="uacute" unicode="&#xfa;" 
d="M345 0v73h-2c-27 -57 -78 -88 -132 -88c-83 0 -134 44 -134 142v429h79v-432c0 -47 15 -72 71 -72c38 0 73 17 95 49c18 28 23 66 23 98v357h79v-556h-79zM184 624l89 141h109l-131 -141h-67z" />
    <glyph glyph-name="ucircumflex" unicode="&#xfb;" 
d="M345 0v73h-2c-27 -57 -78 -88 -132 -88c-83 0 -134 44 -134 142v429h79v-432c0 -47 15 -72 71 -72c38 0 73 17 95 49c18 28 23 66 23 98v357h79v-556h-79zM317 624l-66 94l-66 -94h-80l99 141h93l100 -141h-80z" />
    <glyph glyph-name="udieresis" unicode="&#xfc;" 
d="M345 0v73h-2c-27 -57 -78 -88 -132 -88c-83 0 -134 44 -134 142v429h79v-432c0 -47 15 -72 71 -72c38 0 73 17 95 49c18 28 23 66 23 98v357h79v-556h-79zM136 750h79v-100h-79v100zM365 650h-79v100h79v-100z" />
    <glyph glyph-name="ugrave" unicode="&#xf9;" 
d="M345 0v73h-2c-27 -57 -78 -88 -132 -88c-83 0 -134 44 -134 142v429h79v-432c0 -47 15 -72 71 -72c38 0 73 17 95 49c18 28 23 66 23 98v357h79v-556h-79zM119 765h109l89 -141h-67z" />
    <glyph glyph-name="yacute" unicode="&#xfd;" horiz-adv-x="444" 
d="M182 -13l-177 569h82l125 -482h2l129 482h82l-165 -531c-10 -33 -35 -114 -51 -142c-29 -52 -69 -73 -127 -73c-19 0 -38 3 -57 9v70c18 -8 40 -12 59 -12c74 0 76 55 98 110zM156 624l89 141h109l-131 -141h-67z" />
    <glyph glyph-name="ydieresis" unicode="&#xff;" horiz-adv-x="444" 
d="M182 -13l-177 569h82l125 -482h2l129 482h82l-165 -531c-10 -33 -35 -114 -51 -142c-29 -52 -69 -73 -127 -73c-19 0 -38 3 -57 9v70c18 -8 40 -12 59 -12c74 0 76 55 98 110zM108 750h79v-100h-79v100zM337 650h-79v100h79v-100z" />
    <glyph glyph-name="zcaron" unicode="&#x17e;" horiz-adv-x="389" 
d="M366 0h-342v62l258 429h-247v65h329v-65l-258 -426h260v-65zM129 765l66 -94l66 94h80l-100 -141h-93l-99 141h80z" />
    <glyph glyph-name="Delta" unicode="&#x2206;" horiz-adv-x="587" 
d="M30 0v53l222 703h88l218 -702v-54h-528zM107 66h370l-125 393c-16 58 -46 142 -57 192h-4c-8 -44 -37 -120 -52 -179z" />
    <glyph glyph-name="Omega" unicode="&#x2126;" horiz-adv-x="641" 
d="M175 67v4c-64 70 -120 185 -120 330c0 208 115 348 268 348c162 0 260 -160 260 -343c0 -150 -60 -272 -121 -335v-4h134v-67h-218v49c66 55 127 176 127 340c0 136 -59 290 -183 290c-116 0 -189 -126 -189 -292c0 -153 63 -285 128 -338v-49h-218v67h132z" />
    <glyph glyph-name="uni03BC" unicode="&#x3bc;" horiz-adv-x="516" 
d="M343 0v73h-2c-27 -57 -78 -88 -132 -88c-21 0 -39 13 -55 18v-192h-79v745h79v-432c0 -47 15 -72 71 -72c38 0 73 17 95 49c18 28 23 66 23 98v357h79v-556h-79z" />
    <glyph glyph-name="pi" unicode="&#x3c0;" horiz-adv-x="524" 
d="M498 479h-70v-331c0 -82 6 -120 13 -148h-74c-9 18 -16 63 -16 143v336h-156c-5 -134 -32 -372 -66 -479h-75c35 118 61 339 64 479c-54 0 -78 -5 -96 -11l-12 54c23 15 63 28 134 28h361z" />
    <glyph glyph-name="Euro" unicode="&#x20ac;" 
d="M395 285h-229c16 -104 64 -225 167 -225c62 0 90 13 129 51v-89c-35 -25 -81 -37 -128 -37c-166 0 -239 146 -256 300h-63l10 44h49v30c0 16 0 31 1 47h-60l10 44h54c18 166 92 300 260 300c56 0 114 -18 155 -54l-20 -84c-44 42 -79 63 -147 63
c-114 0 -153 -123 -164 -225h271l-10 -44h-263c-1 -15 -1 -28 -1 -40s0 -24 1 -37h244z" />
    <glyph glyph-name="afii61289" unicode="&#x2113;" horiz-adv-x="448" 
d="M392 146l36 -33c-40 -81 -98 -123 -171 -123c-112 0 -153 89 -155 198v15c-16 -15 -35 -32 -52 -47l-23 45c27 25 52 48 74 73v287c0 187 73 249 146 249c76 0 114 -71 114 -168c0 -130 -74 -257 -185 -380v-42c0 -121 43 -167 96 -167c56 0 97 49 120 93zM176 561v-217
c76 95 134 198 134 299c0 66 -17 106 -62 106c-35 0 -72 -47 -72 -188z" />
    <glyph glyph-name="estimated" unicode="&#x212e;" horiz-adv-x="922" 
d="M886 357h-688c-4 0 -6 -1 -6 -5v-208c0 -9 3 -17 9 -24c67 -69 158 -113 260 -113c110 0 207 50 274 127h61c-76 -90 -199 -148 -336 -148c-234 0 -424 171 -424 381c0 212 190 383 424 383c235 0 426 -171 426 -383v-10zM729 384v209c0 9 -3 18 -10 25
c-67 66 -157 109 -258 109s-192 -44 -259 -112c-7 -7 -10 -16 -10 -26v-205c0 -2 2 -7 6 -7h527c3 0 4 5 4 7z" />
    <glyph glyph-name="partialdiff" unicode="&#x2202;" horiz-adv-x="505" 
d="M95 709l-25 62c31 26 79 56 153 56c119 0 235 -117 235 -396c0 -269 -85 -441 -241 -441c-117 0 -177 113 -177 241c0 169 95 274 198 274c79 0 127 -55 143 -86h1c1 10 1 29 1 41c0 174 -75 299 -168 299c-55 0 -94 -26 -120 -50zM224 59h1c83 0 138 131 149 277
c-14 45 -58 102 -124 102c-74 0 -133 -95 -133 -208c0 -103 41 -171 107 -171z" />
    <glyph glyph-name="product" unicode="&#x220f;" horiz-adv-x="642" 
d="M615 663h-96v-765h-76v765h-245v-765h-77v765h-95v75h589v-75z" />
    <glyph glyph-name="summation" unicode="&#x2211;" horiz-adv-x="507" 
d="M486 -102h-463v55l243 364l-233 364v57h437v-69h-333v-4l216 -334l-236 -352v-4h369v-77z" />
    <glyph glyph-name="uni2219" unicode="&#x2219;" horiz-adv-x="250" 
d="M171 204h-91v100h91v-100z" />
    <glyph glyph-name="radical" unicode="&#x221a;" horiz-adv-x="536" 
d="M532 879l-203 -1035h-67l-146 488l-69 -26l-15 49l133 52l112 -373c6 -30 14 -64 17 -84l1 -1c3 20 7 53 13 84l168 846h56z" />
    <glyph glyph-name="infinity" unicode="&#x221e;" horiz-adv-x="746" 
d="M698 308v-2c0 -95 -71 -155 -148 -155c-60 0 -109 34 -176 113c-50 -59 -103 -113 -181 -113c-79 0 -146 65 -146 152c0 89 65 155 153 155c72 0 127 -53 177 -114c48 54 97 114 180 114c83 -1 141 -61 141 -150zM199 199h2c60 0 106 58 146 102c-43 53 -85 109 -153 109
c-61 0 -95 -50 -95 -108c1 -57 42 -103 100 -103zM551 410h-1c-63 0 -114 -70 -147 -105c63 -71 98 -106 150 -106c60 0 94 54 94 104c0 67 -40 107 -96 107z" />
    <glyph glyph-name="integral" unicode="&#x222b;" horiz-adv-x="350" 
d="M328 890l-12 -57c-8 5 -20 9 -33 9c-16 0 -34 -8 -47 -26c-23 -31 -30 -86 -30 -187c0 -166 12 -357 12 -531c0 -112 -17 -176 -40 -214c-22 -38 -60 -55 -99 -55c-25 0 -50 9 -61 16l13 60c8 -4 23 -11 40 -11c16 0 33 8 44 25c17 25 29 74 29 179
c0 176 -12 369 -12 538c0 116 14 181 51 224c24 28 59 42 94 42c20 0 41 -6 51 -12z" />
    <glyph glyph-name="approxequal" unicode="&#x2248;" horiz-adv-x="519" 
d="M445 445l32 -26c-23 -53 -63 -96 -121 -96c-37 0 -63 14 -107 40c-30 18 -55 33 -86 33c-42 0 -67 -34 -89 -72l-34 25c28 59 74 96 130 96c46 0 80 -26 104 -39c32 -18 54 -34 85 -34c38 0 61 27 86 73zM445 279l32 -26c-24 -53 -63 -96 -121 -96c-37 0 -63 14 -107 40
c-30 19 -55 34 -85 34c-44 0 -68 -35 -90 -73l-34 26c28 58 74 96 129 96c47 0 80 -25 105 -39c31 -18 54 -34 86 -34c37 0 60 27 85 72z" />
    <glyph glyph-name="notequal" unicode="&#x2260;" horiz-adv-x="519" 
d="M371 511l-41 -91h141v-52h-160l-61 -138h221v-51h-240l-49 -109l-40 17l41 92h-135v51h155l61 138h-216v52h235l48 108z" />
    <glyph glyph-name="lessequal" unicode="&#x2264;" horiz-adv-x="519" 
d="M468 111l-415 222v54l415 221v-62l-363 -184v-3l363 -185v-63zM471 18h-423v53h423v-53z" />
    <glyph glyph-name="greaterequal" unicode="&#x2265;" horiz-adv-x="519" 
d="M54 608l415 -222v-53l-415 -222v63l362 184v3l-362 185v62zM471 18h-422v53h422v-53z" />
    <glyph glyph-name="lozenge" unicode="&#x25ca;" horiz-adv-x="536" 
d="M485 368l-187 -410h-64l-183 410l187 411h64zM413 366l-126 283c-7 19 -14 43 -17 59h-3c-4 -17 -10 -38 -18 -59l-127 -278l128 -285c8 -22 13 -45 16 -58h4c3 14 10 43 16 56z" />
    <glyph glyph-name="uni00A0" unicode="&#xa0;" horiz-adv-x="250" 
 />
    <glyph glyph-name="uni00AD" unicode="&#xad;" horiz-adv-x="333" 
d="M288 275h-243v83h243v-83z" />
    <glyph glyph-name="uni02C9" unicode="&#x2c9;" horiz-adv-x="333" 
d="M323 657h-313v58h313v-58z" />
    <glyph glyph-name="uni03A9" unicode="&#x3a9;" horiz-adv-x="641" 
d="M175 67v4c-64 70 -120 185 -120 330c0 208 115 348 268 348c162 0 260 -160 260 -343c0 -150 -60 -272 -121 -335v-4h134v-67h-218v49c66 55 127 176 127 340c0 136 -59 290 -183 290c-116 0 -189 -126 -189 -292c0 -153 63 -285 128 -338v-49h-218v67h132z" />
    <glyph glyph-name="uni2215" unicode="&#x2215;" horiz-adv-x="167" 
d="M-174 0l452 750h63l-452 -750h-63z" />
    </font>
</defs>
</svg>
