<?xml version="1.0" standalone="no"?> <!DOCTYPE svg PUBLIC "-//W3C//DTD SVG 1.0//EN" "http://www.w3.org/TR/2001/REC-SVG-20010904/DTD/svg10.dtd" > <svg xmlns="http://www.w3.org/2000/svg" width="100%" height="100%">
<defs >
<font id="itcfranklingothicltbookcondensed" horiz-adv-x="367" ><font-face
    font-family="ITCFranklinGothic LT BookCn"
    units-per-em="1000"
    panose-1="2 0 5 6 4 0 0 2 0 4"
    ascent="893"
    descent="-250"
    alphabetic="0" />
<missing-glyph horiz-adv-x="250" />
<glyph unicode=" " glyph-name="space" horiz-adv-x="250" />
<glyph unicode="!" glyph-name="exclam" horiz-adv-x="341" d="M216 102V0H125V102H216ZM221 667L195 163H146L120 667H221Z" />
<glyph unicode="&quot;" glyph-name="quotedbl" horiz-adv-x="341" d="M266 409H212L198 667H280L266 409ZM129 409H75L61 667H143L129 409Z" />
<glyph unicode="#" glyph-name="numbersign" horiz-adv-x="511" d="M209 416L182 268H302L329 416H209ZM254 667L219 473H339L375 667H435L400 473H502L492 416H389L363 268H465L455 211H352L314 0H254L292 211H172L134 0H73L112 211H10L20 268H122L149 416H46L57
473H159L194 667H254Z" />
<glyph unicode="$" glyph-name="dollar" horiz-adv-x="511" d="M288 82Q318 85 338 96T369 123T384 157T389 192Q389 225 378 245T351 276T318 293T288 302V82ZM233 595Q208 590 192 581T166 558T152 528T148 493Q148 465 157 447T180 418T207 401T233 392V595ZM233
721H288V655Q357 650 392 619T448 527L390 503Q372 545 351 569T288 596V380Q310 375 339 366T394 337T438 286T457 203Q457 190 455 171T445 129T422 86T381 49Q354 32 330 27T288 19V-67H233V19Q191 25 162 37T113 68T78 112T53 171L117 201Q127 168 140 146T169
111T200 91T233 82V314Q217 318 191 327T141 356T98 407T80 486Q80 528 94 559T130 610T179 642T233 655V721Z" />
<glyph unicode="%" glyph-name="percent" horiz-adv-x="681" d="M502 287Q481 287 468 277T448 249T439 210T436 165Q436 111 449 77T503 43Q525 43 538 53T558 81T567 120T569 165Q569 186 567 208T558 247T538 276T503 287H502ZM503 338Q533 338 557 326T598
290T624 235T633 165Q633 86 598 39T503 -8Q443 -8 408 39T372 165Q372 203 381 235T407 290T448 325T503 338ZM538 667L204 0H146L479 667H538ZM179 624Q156 624 143 612T122 582T114 542T112 501Q112 482 113 461T122 421T142 391T179 379Q200 379 213 389T234
416T243 455T246 501Q246 555 233 589T179 624ZM179 675Q209 675 233 663T275 627T301 572T310 502Q310 424 276 376T179 328Q119 328 84 375T48 502Q48 580 83 627T179 675Z" />
<glyph unicode="&amp;" glyph-name="ampersand" horiz-adv-x="613" d="M226 334Q210 324 194 311T163 281T140 240T131 185Q131 122 164 85T252 47Q288 47 319 64T374 109L226 334ZM208 544Q208 526 213 506T225 468T240 435T253 412Q292 435 318 467T345 544Q345
581 326 602T277 623Q249 623 229 602T208 544ZM543 348Q536 307 528 274T510 214T486 161T454 109Q465 95 473 85T490 69T507 60T529 57Q541 57 548 59T563 63V0Q551 -4 538 -7T508 -11Q490 -11 476 -6T451 8T429 29T407 57Q397 48 383 36T348 12T303 -6T244 -14Q203
-14 168 0T108 41T68 103T53 183Q53 231 69 266T109 324T156 362T194 384Q186 398 176 416T158 454T145 497T139 541Q139 565 148 590T175 635T219 668T281 681Q314 681 339 671T380 642T405 600T413 549Q413 508 398 477T362 424T320 386T286 364L417 166Q438
199 454 244T482 364L543 348Z" />
<glyph unicode="&apos;" glyph-name="quotesingle" horiz-adv-x="204" d="M129 409H75L61 667H143L129 409Z" />
<glyph unicode="(" glyph-name="parenleft" horiz-adv-x="307" d="M258 667Q190 561 162 454T134 250Q134 155 161 48T258 -167H199Q182 -143 158 -105T109 -12Q74 68 64 134T53 250Q53 330 70 397T111 517T159 608T199 667H258Z" />
<glyph unicode=")" glyph-name="parenright" horiz-adv-x="307" d="M49 -167Q119 -57 146 49T173 250Q173 345 146 451T49 667H108Q123 646 147 609T196 518T237 398T254 250Q254 193 242 127T198 -12Q174 -68 150 -105T108 -167H49Z" />
<glyph unicode="*" glyph-name="asterisk" horiz-adv-x="511" d="M288 667L278 528L394 604L423 544L303 490L423 436L394 376L278 452L288 313H223L233 452L117 376L88 436L208 490L88 544L117 604L233 528L223 667H288Z" />
<glyph unicode="+" glyph-name="plus" horiz-adv-x="511" d="M460 364V303H288V129H223V303H51V364H223V538H288V364H460Z" />
<glyph unicode="," glyph-name="comma" horiz-adv-x="239" d="M174 108V0L109 -127H65L124 0H83V108H174Z" />
<glyph unicode="-" glyph-name="hyphen" horiz-adv-x="290" d="M255 278V218H35V278H255Z" />
<glyph unicode="." glyph-name="period" horiz-adv-x="239" d="M165 108V0H74V108H165Z" />
<glyph unicode="/" glyph-name="slash" horiz-adv-x="443" d="M40 -167H-22L314 667H377L40 -167Z" />
<glyph unicode="0" glyph-name="zero" horiz-adv-x="511" d="M256 620Q223 620 200 603T163 558T140 497T128 432T124 373T123 333Q123 320 123 294T128 236T140 171T162 110T200 65T256 47Q289 47 311 64T349 109T371 170T383 235T387 293T388 333Q388 346 388
373T383 431T372 496T349 557T312 602T256 620ZM256 681Q305 681 340 663T398 615T436 548T457 472T467 400T469 341Q469 246 452 167T388 40Q365 16 331 1T256 -14Q206 -14 171 5T111 54T74 122T53 197T44 269T42 326Q42 354 44 387T51 454T64 519T86 576Q95 593
109 611T144 645T192 671T256 681Z" />
<glyph unicode="1" glyph-name="one" horiz-adv-x="511" d="M315 60H422V0H121V60H234V564Q217 541 191 518T115 465V545Q166 574 200 607T260 675H315V60Z" />
<glyph unicode="2" glyph-name="two" horiz-adv-x="511" d="M36 486Q44 521 56 555T103 625Q124 645 145 656T185 673T220 680T245 681Q290 681 326 667T388 626T426 564T440 483Q440 447 430 409T387 322T293 213T128 69H440V0H36V67Q69 95 103 126T172 191T239
258T299 328Q308 340 318 356T338 391T353 432T359 478Q359 495 354 518T336 563T298 598T236 613Q196 613 172 596T134 556T115 509T107 471L36 486Z" />
<glyph unicode="3" glyph-name="three" horiz-adv-x="511" d="M43 527Q47 543 57 569T88 620T146 663T242 681Q282 681 317 670T377 635T416 578T431 500Q431 462 421 437T394 396T358 369T323 351Q335 348 356 341T400 315T438 266T454 184Q454 145 441 110T400
47T332 3T236 -13Q217 -13 195 -10T149 0T104 21T64 57Q43 82 36 105T23 150L89 173Q92 161 96 148T108 122T126 95T153 72Q191 48 235 48Q250 48 272 53T315 72T351 114T366 186Q366 235 348 261T304 300T251 314T205 316H162V376H205Q238 376 262 379T308 399Q332
418 340 443T349 495Q349 555 318 587T236 620Q200 620 177 608T140 577T119 540T107 507L43 527Z" />
<glyph unicode="4" glyph-name="four" horiz-adv-x="511" d="M311 221V618L109 221H311ZM387 681V221H477V161H387V0H311V161H35V215L287 681H387Z" />
<glyph unicode="5" glyph-name="five" horiz-adv-x="511" d="M430 667L423 598H154L144 385Q154 397 165 408T191 429T226 444T275 450Q327 450 363 430T421 379T453 307T463 227Q463 158 443 112T392 38T322 -2T248 -14Q201 -14 166 0T107 37Q77 65 66 92T49
144L118 170Q124 151 132 131T155 93T193 65T252 54Q283 54 307 64T346 92Q369 121 376 157T384 224Q384 256 378 284T358 335T319 369T259 382Q226 382 204 372T167 348T143 319T129 292L73 306L91 667H430Z" />
<glyph unicode="6" glyph-name="six" horiz-adv-x="511" d="M282 369Q240 369 214 351T172 309T152 258T147 214Q147 190 154 162T176 110T217 70T280 54Q310 54 330 64T364 89T384 122T394 158T398 190T399 210Q399 291 365 330T282 369ZM400 508Q394 528 386
547T364 580T332 604T285 613Q277 613 262 612T229 602T194 574T163 521Q143 466 137 413T130 320Q136 333 146 353T174 392T220 424T289 437Q331 437 365 421T424 375T463 304T477 215Q477 171 465 130T427 57T365 6T276 -14Q210 -14 168 18T97 101Q82 130 74
163T62 227T57 281T56 313Q56 390 70 457T112 574T184 652T286 681Q337 681 370 664T423 624T453 575T470 532L400 508Z" />
<glyph unicode="7" glyph-name="seven" horiz-adv-x="511" d="M464 667V618Q450 600 432 574T394 510T352 421T309 300Q292 243 283 196T270 111T266 46T265 0H182Q182 18 182 39T185 86T192 146T208 220Q224 287 243 339T285 436T333 520T386 598H81L88 667H464Z" />
<glyph unicode="8" glyph-name="eight" horiz-adv-x="511" d="M248 312Q231 306 208 296T163 270T127 229T112 170Q112 138 124 115T156 77T201 55T254 47Q275 47 299 52T344 71T379 107T393 164Q393 222 354 255T248 312ZM253 385Q271 392 293 401T335 425T367
461T380 513Q380 559 347 589T259 620Q207 620 175 591T143 515Q143 481 156 458T187 420T223 397T253 385ZM333 358Q349 350 373 337T420 303T458 250T474 175Q474 139 460 105T418 44T349 2T253 -14Q196 -14 156 0T89 39T50 97T37 167Q37 211 52 242T90 295T135
328T173 348Q158 356 139 368T103 399T74 444T62 506Q62 540 74 571T111 627T173 666T261 681Q306 681 341 669T401 634T439 580T452 512Q452 475 439 449T406 404T367 375T333 358Z" />
<glyph unicode="9" glyph-name="nine" horiz-adv-x="511" d="M241 613Q209 613 185 601T145 566T122 515T114 451Q114 412 124 383T151 335T191 306T239 296Q270 296 293 310T331 346T354 397T362 455Q362 480 356 508T335 559T298 598T241 613ZM113 150Q119 134
126 117T145 86T177 63T226 54Q269 54 298 76T344 150Q364 206 368 255T375 339Q369 325 359 306T331 270T287 240T223 228Q189 228 156 241T96 283T53 353T36 451Q36 503 51 545T94 618T160 664T243 681Q291 681 325 666T383 624T420 565T441 496T451 427T453
365Q453 306 445 240T411 117T339 23T218 -14Q173 -14 143 -1T94 33T64 77T45 119L113 150Z" />
<glyph unicode=":" glyph-name="colon" horiz-adv-x="239" d="M165 493V385H74V493H165ZM165 108V0H74V108H165Z" />
<glyph unicode=";" glyph-name="semicolon" horiz-adv-x="239" d="M174 493V385H83V493H174ZM174 108V0L109 -127H65L124 0H83V108H174Z" />
<glyph unicode="&lt;" glyph-name="less" horiz-adv-x="511" d="M472 497L111 333L472 170V103L39 304V363L472 563V497Z" />
<glyph unicode="=" glyph-name="equal" horiz-adv-x="511" d="M51 245V306H460V245H51ZM51 361V422H460V361H51Z" />
<glyph unicode="&gt;" glyph-name="greater" horiz-adv-x="511" d="M39 170L401 333L39 497V563L472 362V304L39 103V170Z" />
<glyph unicode="?" glyph-name="question" horiz-adv-x="494" d="M263 102V0H172V102H263ZM39 486Q40 497 42 512T50 544T64 580T87 617Q113 651 154 666T239 681Q277 681 311 670T370 637T411 581T426 503Q426 470 419 445T399 399T366 360T324 324Q298 303 283
288T261 257T253 220T254 167H182Q182 202 183 228T191 276T209 315T243 350Q269 370 288 386T320 419T339 455T345 503Q345 525 340 546T322 583T288 610T236 620Q183 620 150 585T109 467L39 486Z" />
<glyph unicode="@" glyph-name="at" horiz-adv-x="579" d="M297 455Q278 455 264 442T239 407T223 357T217 297Q217 241 234 217T271 192Q291 192 306 207T331 247T347 300T352 357Q352 373 350 390T341 421T324 445T297 455ZM438 506L409 298Q409 294 408 285T405
266T403 244T402 226Q402 203 410 198T428 193Q450 193 467 206T496 244T514 300T520 368Q520 390 518 417T508 474T486 530T448 580Q422 606 386 620T309 634Q250 634 205 608T128 539T81 441T65 326Q65 261 83 207T135 115T216 55T321 34Q355 34 382 39T432 52T472
69T503 85L521 41Q504 32 484 23T439 5T383 -8T317 -14Q251 -14 194 7T95 71T29 177T4 323Q4 393 23 458T80 572T176 651T312 681Q368 681 416 662T500 605T556 511T576 380Q576 322 564 277T532 201T483 154T423 137Q400 137 387 143T366 158T355 177T351 195Q346
185 340 174T324 154T300 139T264 133Q235 133 214 145T178 178T158 229T151 294Q151 339 161 379T190 449T235 496T295 514Q318 514 333 506T357 487T370 464T378 444L387 506H438Z" />
<glyph unicode="A" glyph-name="A" horiz-adv-x="494" d="M329 256L246 588L162 256H329ZM299 667L477 0H395L346 191H146L98 0H16L203 667H299Z" />
<glyph unicode="B" glyph-name="B" horiz-adv-x="528" d="M151 67H254Q316 67 355 95T394 190Q394 211 386 240T347 292Q323 309 297 313T238 317H151V67ZM151 384H240Q260 384 283 386T325 399T358 432T371 494Q371 534 358 555T325 587T286 598T251 600H151V384ZM70
667H251Q274 667 296 666T340 661T381 647T415 619Q429 603 437 586T449 552T454 523T455 502Q455 461 443 435T415 392T381 367T353 354Q364 351 385 343T426 317T462 268T478 186Q478 147 467 113T430 54T362 15T256 0H70V667Z" />
<glyph unicode="C" glyph-name="C" horiz-adv-x="511" d="M482 191Q475 153 464 117T430 51T370 4T276 -14Q226 -14 189 2T126 46T84 109T59 183T47 259T44 331Q44 354 46 388T56 462T79 540T120 610T185 661T279 681Q340 681 378 658T439 603T471 536T486 478L409
459Q404 483 397 510T377 560T340 598T281 613Q244 613 219 597T177 555T151 498T137 435T131 377T130 333Q130 298 134 250T154 159T200 85T281 54Q309 54 329 62T364 88T389 136T409 209L482 191Z" />
<glyph unicode="D" glyph-name="D" horiz-adv-x="562" d="M151 67H214Q275 67 317 90T384 150T421 234T433 331Q433 391 419 441T378 526T309 580T214 600H151V67ZM70 667H214Q276 667 322 652T403 611T459 551T495 481T513 407T519 338Q519 272 501 211T446 103T351
28T214 0H70V667Z" />
<glyph unicode="E" glyph-name="E" horiz-adv-x="460" d="M433 667V600H151V379H373V312H151V67H441V0H70V667H433Z" />
<glyph unicode="F" glyph-name="F" horiz-adv-x="409" d="M420 667V600H151V379H372V312H151V0H70V667H420Z" />
<glyph unicode="G" glyph-name="G" horiz-adv-x="562" d="M500 330V-9H444L433 82Q427 70 417 54T388 22T342 -3T273 -14Q223 -14 187 3T125 50T84 115T59 190T47 264T44 328Q44 382 52 443T87 558T162 646T288 681Q339 681 374 666T433 626T470 568T494 498L421
470Q414 495 405 520T382 566T344 600T286 613Q242 613 212 592T164 534T138 446T130 335Q130 296 135 247T156 155T203 83T286 54Q321 54 344 66T383 98T406 142T417 189T421 232Q421 252 421 263H285V330H500Z" />
<glyph unicode="H" glyph-name="H" horiz-adv-x="545" d="M70 667H151V384H394V667H475V0H394V317H151V0H70V667Z" />
<glyph unicode="I" glyph-name="I" horiz-adv-x="222" d="M151 667V0H70V667H151Z" />
<glyph unicode="J" glyph-name="J" horiz-adv-x="307" d="M237 275Q237 216 235 164T216 72T165 9T66 -14Q50 -14 29 -12T-18 0V66Q-5 61 11 58T51 54Q90 54 111 66T143 106T154 175T156 275V667H237V275Z" />
<glyph unicode="K" glyph-name="K" horiz-adv-x="494" d="M151 667V316L384 667H475L300 423L517 0H424L248 350L151 213V0H70V667H151Z" />
<glyph unicode="L" glyph-name="L" horiz-adv-x="392" d="M151 667V67H404V0H70V667H151Z" />
<glyph unicode="M" glyph-name="M" horiz-adv-x="682" d="M68 667H185L342 130L499 667H613V0H537V578L365 0H306L138 579V0H68V667Z" />
<glyph unicode="N" glyph-name="N" horiz-adv-x="562" d="M170 667L425 140V667H495V0H415L137 568V0H67V667H170Z" />
<glyph unicode="O" glyph-name="O" horiz-adv-x="562" d="M281 614Q237 614 211 596T166 543Q155 522 148 497T137 444T130 388T128 333Q128 276 136 221T166 125Q186 87 213 70T283 53Q327 53 353 72T396 124Q418 166 426 223T434 333Q434 391 426 447T396 542Q379
574 354 594T281 614ZM283 681Q357 681 403 648T474 563T509 451T518 333Q518 297 515 257T502 179T475 105T432 44T370 2T283 -14Q231 -14 194 2T129 46T86 109T60 183T48 261T44 333Q44 368 47 407T60 485T87 559T130 622T194 665T283 681Z" />
<glyph unicode="P" glyph-name="P" horiz-adv-x="477" d="M151 600V338H213Q239 338 267 340T318 354T357 392T372 466Q372 506 362 528T342 563Q331 577 319 584T292 595T257 599T213 600H151ZM213 667Q285 667 330 654T404 609Q433 577 444 539T456 466Q456
415 435 372T375 303Q357 291 336 285T292 275T250 272T213 271H151V0H70V667H213Z" />
<glyph unicode="Q" glyph-name="Q" horiz-adv-x="562" d="M281 614Q237 614 211 596T167 543Q156 522 149 496T137 443T131 387T129 333Q129 280 136 224T167 125Q186 89 212 71T281 53Q322 53 348 70T395 124Q417 167 425 224T433 334Q433 390 425 445T396 542Q379
574 353 594T281 614ZM472 -153Q458 -158 444 -162T404 -167Q362 -167 335 -155T292 -121T271 -71T265 -13Q248 -11 222 -7T163 18Q121 43 98 87T62 178T47 268T44 333Q44 386 52 447T87 560T159 646T283 681Q333 681 370 665T433 623T475 561T501 487T514 409T518
333Q518 295 515 256T502 180T477 110T437 49Q412 20 387 10T341 -7Q340 -28 342 -44T353 -73T378 -91T421 -97Q438 -97 449 -94T472 -87V-153Z" />
<glyph unicode="R" glyph-name="R" horiz-adv-x="511" d="M151 600V358H252Q287 358 312 368T352 395T375 435T382 486Q382 522 370 544T339 579T299 595T258 600H151ZM264 667Q268 667 283 667T318 662T359 651T399 630Q423 612 443 576T463 485Q463 440 450
409T419 358T383 326T353 310L478 0H391L279 291H151V0H70V667H264Z" />
<glyph unicode="S" glyph-name="S" horiz-adv-x="511" d="M381 494Q374 514 366 535T342 573T304 602T247 613Q213 613 192 602T158 574T141 540T136 509Q136 483 146 465T175 432T221 407T283 382Q312 371 345 356T407 318T454 262T473 181Q473 150 462 116T426
53T360 5T260 -14Q217 -14 173 -1T96 42Q61 74 48 111T30 175L104 196Q108 179 115 155T140 109T186 70T262 54Q299 54 324 65T363 94T383 131T389 168Q389 198 378 219T347 255T305 280T258 300Q229 311 208 319T171 336T141 352T115 373Q89 396 73 431T57 505Q57
535 68 566T104 623T165 665T254 681Q310 681 346 662T404 616T437 561T453 515L381 494Z" />
<glyph unicode="T" glyph-name="T" horiz-adv-x="358" d="M379 667V599H219V0H138V599H-21V667H379Z" />
<glyph unicode="U" glyph-name="U" horiz-adv-x="545" d="M151 667V226Q151 193 153 162T166 107T202 69T273 54Q320 54 345 69T383 109T397 165T399 230V667H475V234Q475 196 472 153T450 73T389 11T270 -14Q197 -14 157 9T97 68T74 146T70 226V667H151Z" />
<glyph unicode="V" glyph-name="V" horiz-adv-x="460" d="M90 667L236 116L380 667H457L271 0H188L7 667H90Z" />
<glyph unicode="W" glyph-name="W" horiz-adv-x="699" d="M97 667L204 137L322 667H386L507 137L612 667H683L545 0H469L350 510L236 0H161L18 667H97Z" />
<glyph unicode="X" glyph-name="X" horiz-adv-x="426" d="M105 667L214 422L339 667H411L259 363L433 0H339L212 286L69 0H-7L167 348L16 667H105Z" />
<glyph unicode="Y" glyph-name="Y" horiz-adv-x="392" d="M57 667L203 360L347 667H421L237 282V0H156V282L-29 667H57Z" />
<glyph unicode="Z" glyph-name="Z" horiz-adv-x="409" d="M399 667V612L90 71H405V0H6V71L308 600H22V667H399Z" />
<glyph unicode="[" glyph-name="bracketleft" horiz-adv-x="307" d="M229 667V616H155V-116H229V-167H82V667H229Z" />
<glyph unicode="\" glyph-name="backslash" horiz-adv-x="443" d="M450 -167H388L51 667H114L450 -167Z" />
<glyph unicode="]" glyph-name="bracketright" horiz-adv-x="307" d="M77 -167V-116H151V616H77V667H224V-167H77Z" />
<glyph unicode="^" glyph-name="asciicircum" horiz-adv-x="511" d="M478 305H401L255 604L109 305H33L221 674H298L478 305Z" />
<glyph unicode="_" glyph-name="underscore" horiz-adv-x="500" d="M0 -75H500V-125H0V-75Z" />
<glyph unicode="`" glyph-name="grave" horiz-adv-x="500" d="M264 562L98 667L149 722L298 598L264 562Z" />
<glyph unicode="a" glyph-name="a" horiz-adv-x="460" d="M321 245Q304 248 293 249T264 251Q188 251 153 222T117 132Q117 94 136 71T199 47Q236 47 260 65T300 110Q318 144 320 174T321 245ZM59 380Q61 389 64 402T76 429T100 459T139 486Q150 491 173 499T234
507Q279 507 312 493T364 455Q386 428 390 387T394 303V158Q394 121 394 97T395 57T398 28T403 0H333Q329 27 328 44T327 87Q319 72 309 55T283 22T243 -3T185 -14Q120 -14 80 25T40 134Q40 165 49 193T77 244Q105 277 150 292T256 307Q277 307 292 306T321 303V324Q321
337 320 358T310 398T282 432T229 446Q200 446 182 437T154 415T138 389T131 368L59 380Z" />
<glyph unicode="b" glyph-name="b" horiz-adv-x="477" d="M139 211Q139 196 140 170T152 117T185 71T248 51Q286 51 307 71T339 122T352 188T355 253Q355 292 351 326T336 386T305 427T250 442Q203 442 171 400T139 286V211ZM139 667V428Q145 437 154 450T179
475T214 495T264 503Q302 503 328 490T370 462Q390 441 403 416T423 364T433 308T436 253Q436 220 431 175T406 88T349 19T248 -10Q217 -10 197 -3T162 15T139 40T123 69Q121 61 120 56T116 45T112 28T104 0H66V667H139Z" />
<glyph unicode="c" glyph-name="c" horiz-adv-x="409" d="M314 325Q311 348 307 370T293 409T267 436T223 446Q197 446 178 436T147 400T128 333T122 230Q122 209 123 178T135 117T166 68T225 47Q253 47 270 59T296 89T308 128T314 167L388 158Q384 133 377 103T353
47T304 4T220 -14Q165 -14 131 9T76 69T49 151T41 241Q41 291 49 339T78 424T134 484T225 507Q274 507 303 490T350 448T375 394T388 340L314 325Z" />
<glyph unicode="d" glyph-name="d" horiz-adv-x="477" d="M338 293Q338 312 335 341T310 399Q293 423 271 432T228 442Q195 442 174 425T141 381T125 319T121 250Q121 207 126 171T144 108T178 66T232 51Q255 51 276 61T312 91Q330 114 334 144T338 211V293ZM411
667V0H345V69Q340 60 331 47T307 21T269 -1T213 -10Q154 -10 120 18T68 87T45 169T40 240Q40 304 53 353T89 435T144 486T215 503Q246 503 267 495T303 474T325 449T338 426V667H411Z" />
<glyph unicode="e" glyph-name="e" horiz-adv-x="443" d="M326 297Q326 325 321 351T305 399T274 433T225 446Q197 446 178 433T148 398T130 350T122 297H326ZM118 237Q118 226 118 208T122 169T132 126T151 87T184 58T233 47Q259 47 276 57T305 82T322 114T333
146L402 130Q390 87 372 59T331 15T282 -7T229 -14Q176 -14 140 7T82 64T51 145T41 239Q41 308 56 358T98 442T159 491T233 507Q316 507 361 442T409 237H118Z" />
<glyph unicode="f" glyph-name="f" horiz-adv-x="239" d="M243 493V433H153V0H80V433H9V493H80Q81 530 83 564T98 624T137 665T211 681Q233 681 244 679T267 675V615Q261 617 253 618T232 620Q204 620 189 613T165 591T155 552T153 493H243Z" />
<glyph unicode="g" glyph-name="g" horiz-adv-x="426" d="M147 21Q141 17 134 12T121 -1T110 -20T105 -46Q105 -71 114 -87T140 -112T180 -125T232 -129Q248 -129 270 -127T312 -117T346 -92T361 -48Q361 -32 354 -15T318 11Q311 13 303 14T278 16T229 18T147
21ZM225 446Q193 446 175 433T147 401T136 364T133 335Q133 303 141 282T163 248T192 230T221 225Q238 225 254 232T283 252T303 287T311 335Q311 354 306 374T291 410T264 436T225 446ZM420 508Q412 510 408 510Q405 510 400 510Q371 510 361 491T348 448Q352
442 358 433T371 409T381 377T386 337Q386 310 377 280T348 225T297 184T220 168Q200 168 187 170T159 177Q145 172 132 164T118 131Q118 114 124 105T145 92T185 85T248 81Q286 79 320 76T380 60T421 23T436 -45Q436 -96 410 -124T350 -167T280 -184T227 -188Q203
-188 170 -184T106 -167T53 -129T31 -59Q31 -31 38 -14T56 15T77 31T96 39Q89 44 81 50T66 65T55 86T50 116Q50 150 66 171T114 207Q106 214 96 225T78 251T63 288T57 337Q57 375 71 406T108 460T160 495T222 507Q252 507 271 500T304 486Q310 518 321 535T346
560T379 569T420 570V508Z" />
<glyph unicode="h" glyph-name="h" horiz-adv-x="460" d="M139 667V417Q142 427 149 442T170 471T206 496T262 507Q300 507 330 491T377 445Q390 420 392 384T394 306V0H321V306Q321 331 320 356T311 401T287 433T241 446Q206 446 186 425T156 375T142 313T139
258V0H66V667H139Z" />
<glyph unicode="i" glyph-name="i" horiz-adv-x="204" d="M63 580V665H142V580H63ZM139 493V0H66V493H139Z" />
<glyph unicode="j" glyph-name="j" horiz-adv-x="204" d="M63 580V665H142V580H63ZM139 493V18Q139 -19 137 -54T124 -116T87 -159T16 -175Q-2 -175 -14 -173T-41 -167V-106Q-30 -109 -20 -111T8 -114Q30 -114 41 -108T58 -87T65 -47T66 18V493H139Z" />
<glyph unicode="k" glyph-name="k" horiz-adv-x="409" d="M139 667V248L315 493H395L266 319L412 0H333L217 262L139 155V0H66V667H139Z" />
<glyph unicode="l" glyph-name="l" horiz-adv-x="204" d="M139 667V0H66V667H139Z" />
<glyph unicode="m" glyph-name="m" horiz-adv-x="698" d="M66 493H134V418Q141 433 149 449T171 478T205 499T255 507Q291 507 313 496T347 470T365 437T373 407Q378 419 386 436T408 468T446 495T503 507Q533 507 563 494T612 452Q620 440 624 423T630 385T632
344T633 304V0H560V300Q560 328 559 354T551 401T529 433T485 446Q453 446 434 430T404 391T390 340T386 291V0H313V333Q313 369 308 391T292 425T267 441T236 446Q216 446 203 440T180 426T164 407T154 390Q143 366 141 341T139 286V0H66V493Z" />
<glyph unicode="n" glyph-name="n" horiz-adv-x="460" d="M66 493H134V417Q139 428 147 443T169 473T206 497T261 507Q303 507 334 489T379 441Q390 418 392 387T394 314V0H321V304Q321 335 320 361T312 406T289 435T245 446Q223 446 204 438T170 408T148 353T139
266V0H66V493Z" />
<glyph unicode="o" glyph-name="o" horiz-adv-x="460" d="M230 446Q191 446 169 422T137 365T124 299T122 246Q122 225 124 192T137 126T169 70T230 47Q269 47 290 70T322 125T335 191T338 246Q338 258 338 277T334 318T324 363T305 404T275 434T230 446ZM232
507Q290 507 326 482T383 419T411 336T419 252Q419 219 414 174T390 87T333 16T229 -14Q172 -14 136 10T78 73T49 157T41 246Q41 271 43 300T53 358T74 414T108 461T159 494T232 507Z" />
<glyph unicode="p" glyph-name="p" horiz-adv-x="477" d="M139 209Q139 178 142 150T166 94Q181 74 201 63T247 51Q272 51 291 61T326 100Q344 132 349 174T355 249Q355 276 351 309T336 372T303 422T247 442Q225 442 203 432T162 388Q145 357 142 333T139 283V209ZM132
493V407Q137 418 145 434T169 466T206 492T263 503Q303 503 335 486T389 435T424 356T436 253Q436 241 435 217T427 163T410 103T380 47T332 6T263 -10Q236 -10 217 -4T183 12T159 35T139 64V-167H66V493H132Z" />
<glyph unicode="q" glyph-name="q" horiz-adv-x="477" d="M338 284Q338 328 328 358T301 407T265 434T230 442Q192 442 171 420T138 366T124 301T121 244Q121 211 125 178T142 114Q146 104 153 93T171 73T196 57T228 51Q239 51 255 55T292 80Q323 111 330 149T338
227V284ZM411 500V-167H338V73Q331 62 322 48T297 20T261 -1T210 -10Q132 -10 86 55T40 236Q40 314 57 365T100 447T159 490T221 503Q252 503 273 494T308 471T331 441T345 413Q349 424 352 433T359 451T365 472T372 500H411Z" />
<glyph unicode="r" glyph-name="r" horiz-adv-x="255" d="M131 493V390Q136 403 145 424T171 464T213 496T273 506V424Q212 431 176 389T139 255V0H66V493H131Z" />
<glyph unicode="s" glyph-name="s" horiz-adv-x="392" d="M288 366Q285 374 279 387T263 414T235 436T192 446Q170 446 154 439T128 422T112 397T107 370Q107 351 113 339T134 318T170 302T222 285Q246 277 272 267T321 241T358 199T373 137Q373 110 363 84T331
35T275 0T194 -14Q138 -14 105 3T53 43T27 89T17 127L85 142Q87 132 91 116T108 85T141 58T199 47Q226 47 244 54T274 74T291 100T297 128Q297 149 288 162T266 185T235 201T201 213Q169 223 147 230T108 246T80 264T59 287Q48 303 42 321T35 360Q35 382 44 408T73
456T123 492T196 507Q241 507 269 493T315 458T340 417T352 382L288 366Z" />
<glyph unicode="t" glyph-name="t" horiz-adv-x="255" d="M147 615V493H243V433H147V185Q147 149 148 124T156 82T179 58T223 50Q237 50 247 51T267 55V-7Q253 -9 237 -11T199 -14Q152 -14 127 0T90 41T76 103T74 185V433H3V493H74V608L147 615Z" />
<glyph unicode="u" glyph-name="u" horiz-adv-x="460" d="M139 493V182Q139 151 140 126T148 84T170 57T214 47Q254 47 276 71T308 129T319 201T321 268V493H394V0H326V73Q320 61 311 46T288 18T251 -5T197 -14Q188 -14 174 -13T143 -5T110 15T83 51Q77 64 74
81T69 117T67 153T66 181V493H139Z" />
<glyph unicode="v" glyph-name="v" horiz-adv-x="375" d="M81 493L193 88L301 493H368L225 0H150L7 493H81Z" />
<glyph unicode="w" glyph-name="w" horiz-adv-x="562" d="M85 493L170 123L254 493H307L398 119L486 493H547L426 0H364L280 347L201 0H136L12 493H85Z" />
<glyph unicode="x" glyph-name="x" horiz-adv-x="341" d="M83 493L171 326L256 493H331L209 266L353 0H269L166 196L64 0H-13L128 259L0 493H83Z" />
<glyph unicode="y" glyph-name="y" horiz-adv-x="375" d="M92 493L193 124L302 493H372L202 -50Q193 -77 184 -100T160 -141T125 -168T73 -178Q58 -178 47 -177T25 -173V-113Q33 -115 40 -116T59 -117Q80 -117 93 -112T117 -91T137 -49T158 22L19 493H92Z" />
<glyph unicode="z" glyph-name="z" horiz-adv-x="324" d="M320 493V453L92 60H320V0H9V60L226 433H27V493H320Z" />
<glyph unicode="{" glyph-name="braceleft" horiz-adv-x="307" d="M236 615Q213 615 200 610T181 593T173 561T171 508V405Q171 366 170 341T162 299T143 272T108 255Q130 248 142 238T161 212T169 170T171 105V-10Q171 -42 172 -62T180 -95T200 -112T236 -117L235
-169Q184 -172 156 -161T115 -129T100 -77T98 -10V105Q98 135 97 157T91 195T74 217T41 224V285Q62 284 74 291T91 314T97 352T98 405V508Q98 544 100 574T115 626T156 659T236 667V615Z" />
<glyph unicode="|" glyph-name="bar" horiz-adv-x="500" d="M284 750V-250H217V750H284Z" />
<glyph unicode="}" glyph-name="braceright" horiz-adv-x="307" d="M71 -117Q95 -117 108 -112T127 -95T134 -62T136 -10V104Q136 143 137 169T145 211T164 238T199 255Q177 262 165 271T146 297T138 340T136 405V508Q136 539 135 559T127 592T108 610T71 615V667Q123
670 151 659T192 627T207 575T209 508V405Q209 375 210 353T216 315T233 292T266 285V224Q245 225 233 218T216 195T210 158T209 105V-10Q209 -46 207 -76T192 -128T151 -161T71 -169V-117Z" />
<glyph unicode="~" glyph-name="asciitilde" horiz-adv-x="511" d="M16 290Q25 308 36 327T63 364T100 392T152 403Q158 403 165 403T186 399T218 388T265 368Q284 359 297 353T322 342T342 337T363 335Q398 335 418 355T455 405L496 381Q490 369 480 350T452
314T411 284T355 271Q329 271 297 283T215 319Q173 339 147 339Q128 339 114 331T88 312T70 287T56 264L16 290Z" />
</font>
</defs>
</svg>
